<?xml version="1.0" standalone="no"?>
<!DOCTYPE svg PUBLIC "-//W3C//DTD SVG 1.1//EN" "http://www.w3.org/Graphics/SVG/1.1/DTD/svg11.dtd" >
<svg xmlns="http://www.w3.org/2000/svg" xmlns:xlink="http://www.w3.org/1999/xlink" version="1.1">
<metadata></metadata>
<defs>
<font id="intro_lightregular" horiz-adv-x="1099" >
<font-face units-per-em="2048" ascent="1536" descent="-512" />
<missing-glyph horiz-adv-x="542" />
<glyph horiz-adv-x="0" />
<glyph horiz-adv-x="682" />
<glyph unicode=" "  horiz-adv-x="542" />
<glyph unicode="&#x09;" horiz-adv-x="542" />
<glyph unicode="&#xa0;" horiz-adv-x="542" />
<glyph unicode="!" horiz-adv-x="477" d="M170 47q0 30 18 47t48 17t49.5 -17t19.5 -47q0 -29 -19.5 -46t-49.5 -17t-48 17t-18 46zM186 1434h103l-2 -1172h-97z" />
<glyph unicode="&#x22;" horiz-adv-x="638" d="M160 997v437h82l-11 -437h-71zM401 997v437h82l-12 -437h-70z" />
<glyph unicode="#" horiz-adv-x="1392" d="M98 430v76h267l55 377h-258v75h270l70 474h88l-68 -474h441l71 474h90l-69 -474h239v-75h-252l-55 -377h244v-76h-254l-62 -430h-94l64 430h-441l-63 -430h-94l65 430h-254zM453 504h446l53 381h-442z" />
<glyph unicode="$" horiz-adv-x="1318" d="M100 375h101q6 -73 44 -130t97.5 -92t126.5 -55t141 -26v624q-83 11 -145.5 25t-128 42t-107.5 65.5t-69 97.5t-27 137q0 94 42 169t111.5 121t152 71.5t171.5 29.5v137h92v-139q88 -6 166.5 -29.5t147.5 -65.5t112.5 -111.5t49.5 -158.5h-99q-6 67 -42 119.5t-91 84.5 t-116.5 49.5t-127.5 21.5v-590q201 -30 285 -60q168 -59 213 -194q19 -57 19 -129q0 -82 -31 -149.5t-81.5 -112.5t-119 -76.5t-139 -47.5t-146.5 -21v-140h-92v140q-92 4 -178 30t-159.5 72.5t-120 121.5t-52.5 169zM236 1059q0 -60 23.5 -106t57.5 -73t88 -47.5 t98.5 -29.5t106.5 -17v578q-54 -3 -105 -15t-100.5 -36.5t-86.5 -58.5t-59.5 -84.5t-22.5 -110.5zM702 74q59 3 115 15t111.5 36.5t97 59t67 87.5t25.5 117q0 48 -12.5 87t-28 65.5t-51 48.5t-58 34t-75 24.5t-76 16.5t-84.5 14q-21 3 -31 5v-610z" />
<glyph unicode="%" horiz-adv-x="1644" d="M78 1124q0 79 28 143t73.5 103.5t104 61t119 21.5t119 -21.5t104 -61t73.5 -103.5t28 -143t-28 -143t-73.5 -103.5t-104 -61t-119 -21.5t-119 21t-104 60.5t-73.5 103.5t-28 144zM164 1124q0 -80 35.5 -139t88.5 -85.5t115.5 -26.5t115.5 26.5t88.5 85.5t35.5 139 t-35.5 138.5t-88.5 85t-115.5 26.5t-115.5 -26.5t-88.5 -85t-35.5 -138.5zM414 -2l702 1432h101l-701 -1432h-102zM918 303q0 79 28 143t73.5 103.5t104 61t119 21.5t119 -21.5t104 -61t73.5 -103.5t28 -143t-28 -143t-73.5 -103t-104 -60.5t-119 -21t-119 22t-104 60.5 t-73.5 103t-28 142zM1001 303q0 -80 35.5 -138.5t89.5 -85t116 -26.5t116 26.5t89.5 85t35.5 138.5t-35.5 139t-89.5 85.5t-116 26.5t-116 -26.5t-89.5 -85.5t-35.5 -139z" />
<glyph unicode="&#x26;" horiz-adv-x="1341" d="M119 418q0 308 311 389q-212 67 -221 299q0 89 37.5 158t100.5 108.5t138 59.5t158 20q84 0 156 -18.5t131.5 -56.5t95 -103t39.5 -150h-90q-4 65 -32.5 113t-76 75t-103.5 39.5t-122 12.5q-90 0 -163 -24.5t-123 -84.5t-50 -149q0 -130 102 -195t275 -65v-86 q-61 0 -92 -2q-369 -29 -369 -338q0 -156 116.5 -253t280.5 -97q191 0 292.5 119.5t101.5 316.5v332h248v-82h-158v-252q0 -251 -127.5 -387.5t-356.5 -136.5q-216 0 -357.5 122.5t-141.5 315.5z" />
<glyph unicode="'" horiz-adv-x="411" d="M160 997v437h98l-14 -437h-84z" />
<glyph unicode="(" horiz-adv-x="589" d="M106.5 578.5q-1.5 200.5 36.5 381t122.5 339t205.5 255.5l49 -71q-103 -90 -175 -237t-103.5 -315.5t-29.5 -354.5t37 -354t106 -314t169 -234l-53 -73q-116 98 -199 256.5t-123.5 339.5t-42 381.5z" />
<glyph unicode=")" horiz-adv-x="589" d="M66 -326q98 88 169 234t106 314t37 354t-29.5 354.5t-103.5 315.5t-175 237l49 71q122 -97 206.5 -255.5t122 -339t35.5 -380t-42.5 -380.5t-123.5 -340t-198 -258z" />
<glyph unicode="*" horiz-adv-x="849" d="M131 1210l23 72l235 -90l-4 254h80l-10 -256l237 94l25 -72l-238 -84l172 -213l-59 -45l-168 222l-166 -224l-59 47l168 209z" />
<glyph unicode="+" horiz-adv-x="958" d="M131 707v84h307v309h84v-309h305v-84h-305v-306h-84v306h-307z" />
<glyph unicode="," horiz-adv-x="438" d="M145 41q0 30 20.5 49t53.5 19q26 0 47 -15t25 -39v-26q-3 -8 -6 -22.5t-6 -22.5l-56 -177h-73l49 168q-24 5 -39 22.5t-15 43.5z" />
<glyph unicode="-" horiz-adv-x="931" d="M145 639v88h641v-88h-641z" />
<glyph unicode="." horiz-adv-x="440" d="M145 57q0 42 37.5 59.5t75 0.5t37.5 -60q0 -32 -23.5 -50t-51.5 -18t-51.5 18t-23.5 50z" />
<glyph unicode="/" horiz-adv-x="937" d="M72 2l692 1432h104l-694 -1432h-102z" />
<glyph unicode="0" horiz-adv-x="1359" d="M154 471v487q0 149 70 262.5t189.5 172.5t268.5 59q147 0 265.5 -59t188.5 -172.5t70 -262.5v-487q0 -150 -70 -263.5t-188.5 -172t-265.5 -58.5q-228 0 -378 134.5t-150 359.5zM252 492q0 -93 31 -175q44 -117 150 -181t249 -64q142 0 247.5 64t149.5 181q31 82 31 175 v446q0 93 -31 172q-44 120 -149.5 185t-247.5 65q-143 0 -249 -65t-150 -185q-31 -79 -31 -172v-446z" />
<glyph unicode="1" horiz-adv-x="866" d="M96 0v88h301v1262h-264v84h365v-1346h303v-88h-705z" />
<glyph unicode="2" horiz-adv-x="1101" d="M100 0v23l633 745q52 57 84 125t41.5 134t-5.5 128t-52.5 109t-105 75.5t-156.5 28.5q-157 0 -238.5 -73.5t-81.5 -219.5h-88q0 184 102 281t304 98q105 2 187.5 -31t132 -90t73.5 -133t17.5 -157.5t-42.5 -167.5t-100 -160q-41 -46 -84.5 -97.5t-96.5 -115t-87 -103.5 l-275 -313l293 6h430v-92h-885z" />
<glyph unicode="3" horiz-adv-x="1187" d="M109 369h94q23 -144 120.5 -221.5t247.5 -77.5q178 0 286 96t108 272q0 95 -42.5 172.5t-113.5 120.5t-165 56.5t-198 -19.5v37l451 536h-729v93h903v-25l-465 -549q199 12 328 -105t129 -313q0 -214 -133 -339.5t-357 -125.5q-192 0 -316.5 103t-147.5 289z" />
<glyph unicode="4" horiz-adv-x="1185" d="M70 336v49l776 1049h94v-1010h154v-88h-154v-336h-96v336h-774zM209 426h637v399l4 459h-4z" />
<glyph unicode="5" horiz-adv-x="1189" d="M127 352h92q59 -280 373 -280q72 0 141 24t126 69t91.5 119t34.5 165q0 100 -31.5 174.5t-88 118t-125 65.5t-152.5 27q-179 10 -416 -56v656h827v-91h-737v-462q147 49 328 39q80 -4 150 -21.5t134 -53.5t109.5 -89t72.5 -131.5t27 -175.5q0 -204 -140.5 -336.5 t-354.5 -132.5q-185 0 -308.5 96t-152.5 276z" />
<glyph unicode="6" horiz-adv-x="1193" d="M84 446q0 156 88 281l475 711h117l-406 -592q107 61 250 61q137 3 250.5 -51.5t182.5 -162t69 -247.5q0 -145 -71 -251.5t-186 -158.5t-257 -52q-104 0 -196.5 30.5t-163 87.5t-111.5 146t-41 198zM186 446q0 -172 118.5 -272t291.5 -100q176 0 295 100t119 272 q0 115 -58 201t-151.5 128t-206.5 42q-173 0 -290.5 -99.5t-117.5 -271.5z" />
<glyph unicode="7" horiz-adv-x="1046" d="M86 1339v95h926v-17l-686 -1417h-107l649 1339h-782z" />
<glyph unicode="8" horiz-adv-x="1267" d="M115 401q0 149 90 253t231 143q-104 39 -166.5 117.5t-62.5 191.5q0 108 59.5 191t155.5 125t211 42q116 0 213 -41t158 -124t61 -193q0 -113 -65.5 -191.5t-172.5 -117.5q144 -40 234.5 -142.5t91.5 -253.5q0 -99 -42 -181t-113.5 -136.5t-165.5 -84.5t-199 -30 q-140 0 -256.5 50.5t-189 150.5t-72.5 231zM217 403q0 -107 61.5 -187t154.5 -118.5t200 -38.5q108 0 201.5 38.5t155 118.5t61.5 187q0 110 -62 190t-155.5 117.5t-202.5 37.5q-108 0 -200 -37.5t-153 -117.5t-61 -190zM301 1102q0 -83 49 -145.5t123 -92.5t158 -30 q88 0 162.5 29.5t124 92.5t49.5 148q0 86 -49 150t-123.5 94t-161.5 30q-85 0 -159 -30.5t-123.5 -95t-49.5 -150.5z" />
<glyph unicode="9" horiz-adv-x="1193" d="M84 999q0 146 71 253t186 158.5t257 51.5q105 0 196.5 -28.5t162.5 -84t112 -145t41 -203.5q0 -73 -24.5 -148.5t-67.5 -135.5l-471 -717h-115l406 600q-100 -57 -250 -57q-139 0 -252 52t-182.5 157t-69.5 247zM184 999q0 -92 33.5 -164t91.5 -116t132 -67t159 -23 q173 0 291.5 100t118.5 272q0 92 -33 164t-90 116.5t-130.5 67.5t-158.5 23q-115 0 -207 -41t-149.5 -127t-57.5 -205z" />
<glyph unicode=":" horiz-adv-x="438" d="M147 55q0 30 21 49t51 19q31 0 52.5 -19t21.5 -49q0 -29 -21.5 -48t-52.5 -19q-30 0 -51 19t-21 48zM147 760q0 30 21 48.5t51 18.5q32 0 53 -18.5t21 -48.5q0 -29 -21.5 -48.5t-52.5 -19.5q-30 0 -51 19.5t-21 48.5z" />
<glyph unicode=";" horiz-adv-x="456" d="M158 760q0 29 18 46t47 17q30 0 50 -17t20 -46t-20 -46.5t-50 -17.5q-29 0 -47 17.5t-18 46.5zM162 43q0 29 18.5 45t48.5 16q24 0 43 -13t23 -36v-24q-3 -7 -5 -20.5t-5 -20.5l-47 -140h-66l39 132q-49 9 -49 61z" />
<glyph unicode="&#x3c;" horiz-adv-x="1040" d="M102 676v76l777 346v-92l-658 -293l658 -310v-90z" />
<glyph unicode="=" horiz-adv-x="1075" d="M158 449v83h760v-83h-760zM158 741v84h760v-84h-760z" />
<glyph unicode="&#x3e;" horiz-adv-x="1040" d="M162 313v95l657 307l-657 286v97l776 -346v-76z" />
<glyph unicode="?" horiz-adv-x="999" d="M82 1096q0 88 33.5 155.5t92 108t132 60.5t158.5 20q67 0 129 -14.5t117.5 -46.5t95 -77.5t59.5 -112t12 -145.5q-5 -67 -30 -123.5t-60 -97.5t-76 -80.5t-80.5 -84t-70.5 -96t-47.5 -128t-11.5 -170.5h-101q-2 108 17 194t51 141.5t71 100.5t79 82t74 74t57 88t26 113 q4 75 -21 132t-70.5 89.5t-101.5 48.5t-120 16q-62 0 -117 -12.5t-103 -40t-76 -77.5t-28 -117h-90zM414 41q0 28 19.5 44.5t49.5 16.5t49 -16t19 -45t-19.5 -47.5t-48.5 -18.5q-30 0 -49.5 18.5t-19.5 47.5z" />
<glyph unicode="@" horiz-adv-x="1847" d="M123 504q16 178 86.5 327.5t183.5 256t270.5 166t340.5 59.5q179 0 325.5 -57.5t243.5 -161.5t143.5 -253.5t30.5 -328.5q-5 -69 -19.5 -137t-43.5 -138.5t-68.5 -123.5t-99 -87t-130.5 -34q-56 0 -85.5 28t-33 74t0.5 105l6 53q-56 -120 -172 -190t-248 -70 q-142 0 -240 71.5t-138.5 186.5t-26.5 254q8 103 41.5 189t85 146t119.5 101t144 60.5t158 19.5q111 -2 222 -45t184 -115l-55 -624q-4 -45 -5 -82.5t16 -61.5t54 -24q48 -2 90.5 29t72 80t52 110t34.5 118.5t15 106.5q29 331 -158 531t-522 200q-337 0 -552.5 -204 t-245.5 -535q-16 -170 23.5 -310t124.5 -231.5t202 -140.5t262.5 -44.5t298.5 62.5l-6 -65q-137 -49 -269 -57.5t-245 20t-206.5 94.5t-156 161t-90.5 226.5t-14 284.5zM547 504q-18 -191 65.5 -306.5t259.5 -115.5q161 0 271 112.5t131 276.5l31 344q-115 107 -324 117 q-80 0 -153 -26t-133.5 -77t-100 -134.5t-47.5 -190.5z" />
<glyph unicode="A" horiz-adv-x="1449" d="M31 0v12l671 1426h48l665 -1426v-12h-106l-195 414h-780l-195 -414h-108zM369 504h710l-354 764z" />
<glyph unicode="B" horiz-adv-x="1363" d="M203 0v1434h524q99 0 180 -21t145 -65t99 -118t35 -173q0 -109 -54 -193.5t-159 -118.5q133 -32 206.5 -126.5t73.5 -225.5q0 -193 -125 -293t-329 -100h-596zM305 94h488q104 0 181.5 29.5t126 98t48.5 171.5q0 299 -408 299h-436v-598zM305 780h426q79 0 139.5 13 t110.5 43t77 86.5t27 136.5q0 81 -28 138t-79.5 87.5t-113 43.5t-141.5 13h-418v-561z" />
<glyph unicode="C" horiz-adv-x="1558" d="M111 717q0 215 93 383t257 260t370 92q212 -5 383 -112.5t242 -305.5h-100q-72 153 -214.5 237.5t-314.5 84.5h-12q-173 0 -309 -80q-140 -84 -215.5 -230t-75.5 -329q0 -135 44.5 -252t123.5 -202t194.5 -134t251.5 -49q181 0 326.5 91t210.5 255h100 q-67 -210 -242 -326t-395 -116q-153 0 -286 53.5t-228 149t-149.5 232.5t-54.5 298z" />
<glyph unicode="D" horiz-adv-x="1503" d="M203 0v1434h493q157 0 288.5 -57t220 -154.5t137.5 -228t49 -277.5q0 -149 -49.5 -280t-138 -228t-220 -153t-287.5 -56h-493zM307 96h385q133 0 245.5 48t189 131t119 196.5t42.5 243.5q0 173 -72 314t-208.5 224.5t-313.5 83.5h-387v-1241z" />
<glyph unicode="E" horiz-adv-x="1165" d="M203 0v1434h827v-91h-725v-557h694v-92h-694v-600h731v-94h-833z" />
<glyph unicode="F" horiz-adv-x="1132" d="M203 0v1434h837v-93h-733v-596h680v-94h-680v-651h-104z" />
<glyph unicode="G" horiz-adv-x="1599" d="M111 721q0 211 91.5 378.5t253 261t363.5 93.5q227 0 392 -100t239 -307h-104q-134 311 -529 311q-180 -3 -318.5 -87t-212 -227.5t-73.5 -322.5q0 -184 72.5 -329t210.5 -229.5t321 -84.5q255 0 416 155.5t178 411.5h-565v90h667q0 -214 -63 -360q-79 -189 -244.5 -292 t-388.5 -103q-154 0 -285.5 55.5t-224 153t-144.5 235t-52 297.5z" />
<glyph unicode="H" horiz-adv-x="1476" d="M203 0v1434h102v-633h864v633h105v-1434h-105v705h-864v-705h-102z" />
<glyph unicode="I" horiz-adv-x="782" d="M68 0v84h272v1266h-254v84h610v-84h-254v-1266h273v-84h-647z" />
<glyph unicode="J" horiz-adv-x="1314" d="M74 483v103h100v-103q0 -193 114.5 -300t305.5 -107q192 0 310 109t118 298v856h-399v95h503v-951q0 -232 -148.5 -367.5t-383.5 -135.5q-233 0 -376.5 135.5t-143.5 367.5z" />
<glyph unicode="K" horiz-adv-x="1325" d="M203 0v1434h104v-686q279 0 365 49q27 15 51.5 45.5t41 61t35.5 80t28 78t24 79.5q4 13 6 20q16 54 32.5 93.5t40.5 75.5t53 57q28 21 68 37q38 16 86 15q1 1 3 1q49 0 112 -8v-76q-36 4 -67 4q-32 0 -58 -4q-50 -10 -83 -42t-52 -72.5t-39 -111.5q-18 -58 -23 -73.5 t-22.5 -67t-29.5 -74.5t-32 -61t-42.5 -64t-48.5 -47l532 -729v-14h-119l-503 698q-76 -39 -359 -39v-659h-104z" />
<glyph unicode="L" horiz-adv-x="1052" d="M203 0v1434h104v-1340h713v-94h-817z" />
<glyph unicode="M" horiz-adv-x="1685" d="M203 0v1436h43l598 -861l596 861h43v-1436h-105v1178l-524 -758h-20l-527 758v-1178h-104z" />
<glyph unicode="N" horiz-adv-x="1521" d="M203 0v1436h41l981 -1207l-11 521v686h105v-1436h-35l-987 1210l10 -489v-721h-104z" />
<glyph unicode="O" horiz-adv-x="1671" d="M111 717q0 163 55.5 301.5t152 234t230 149.5t285.5 54q207 0 372 -91.5t260 -261t95 -386.5q0 -215 -92 -383.5t-258 -262.5t-377 -94q-155 0 -288.5 54t-229.5 150t-150.5 234.5t-54.5 301.5zM215 717q0 -140 47 -260t129 -204t196.5 -131.5t246.5 -47.5q177 0 319 81 t222.5 228t80.5 334q0 186 -79.5 332.5t-221 227.5t-319.5 81t-319.5 -80.5t-221.5 -227t-80 -333.5z" />
<glyph unicode="P" horiz-adv-x="1327" d="M203 0v1436h555q216 0 356.5 -135.5t140.5 -342.5t-140 -340t-357 -133h-453v-485h-102zM305 582h453q169 0 282 105.5t113 273.5q0 169 -111.5 274.5t-283.5 105.5h-453v-759z" />
<glyph unicode="Q" horiz-adv-x="1669" d="M111 721q0 214 92 382t257.5 261.5t375.5 93.5q153 0 287 -54t230.5 -149t152 -233.5t55.5 -300.5q0 -309 -183 -508l156 -221v-17h-98l-127 175q-196 -166 -468 -166h-10q-153 0 -286 54t-228.5 150t-150.5 234t-55 299zM215 721q0 -188 81.5 -335t222.5 -226.5 t317 -79.5q133 0 248 46.5t197.5 130t129.5 203.5t47 261q0 185 -80.5 331t-222.5 226t-319 80q-131 0 -246 -47t-197.5 -130t-130 -202t-47.5 -258z" />
<glyph unicode="R" horiz-adv-x="1366" d="M203 0v1434h551q210 0 345.5 -125t135.5 -322q0 -174 -108 -288t-279 -140l446 -543v-16h-114l-439 547h-434v-547h-104zM305 637h449q162 0 271.5 96t109.5 256q0 158 -109 255t-272 97h-449v-704z" />
<glyph unicode="S" horiz-adv-x="1323" d="M102 375h93q5 -65 37 -118t80.5 -87t111 -57t124 -33t122.5 -10q81 0 157 19t141 56.5t105.5 101t42.5 144.5v9q0 62 -25 110q-27 50 -61.5 78.5t-105 51t-114.5 30.5t-133 21q-4 1 -6.5 1t-6.5 1t-7 1q-47 6 -79 10.5t-75.5 12t-74 16t-68 20.5t-63 27t-53.5 34.5 t-46 44t-33.5 53.5t-22.5 66t-7 79q0 79 30.5 146t81 113t117 78t138 47t145.5 15q104 0 194 -21t165.5 -64.5t121.5 -117.5t52 -172h-97q-5 64 -34.5 114t-73.5 81t-101.5 51.5t-113 28.5t-113.5 8q-78 0 -149 -18t-129.5 -53.5t-93.5 -95.5t-35 -138q0 -65 28 -113.5 t58 -74t100 -45.5t102.5 -25t115.5 -15q20 -3 30 -4q70 -10 118.5 -18.5t110.5 -24t104 -34t86 -48.5t69.5 -66.5t41.5 -88.5q15 -48 15 -106v-7q-2 -102 -49.5 -182.5t-126 -128.5t-172.5 -73t-197 -25q-81 0 -158.5 13.5t-151 44t-129.5 75t-92 112t-41 150.5z" />
<glyph unicode="T" horiz-adv-x="1118" d="M37 1339v95h1044v-95h-471v-1339h-102v1339h-471z" />
<glyph unicode="U" horiz-adv-x="1447" d="M188 492v942h103v-940q0 -195 119.5 -305.5t316.5 -110.5q195 0 313.5 110.5t118.5 305.5v940h101v-942q0 -236 -147.5 -373t-385.5 -137q-240 0 -389.5 137t-149.5 373z" />
<glyph unicode="V" horiz-adv-x="1351" d="M63 1419v15h111l229 -568q14 -40 39 -96l236 -586h2l229 586l269 664h108v-15l-588 -1423h-43z" />
<glyph unicode="W" horiz-adv-x="1933" d="M82 1417v17h104l174 -576l189 -655l393 1204h45l399 -1202h3l151 551l201 678h108v-13l-432 -1427h-57l-395 1184l-392 -1184h-53z" />
<glyph unicode="X" horiz-adv-x="1243" d="M25 0v14l540 742l-485 663v15h110l433 -594h2l434 594h106v-13l-485 -665l541 -744v-12h-113l-481 672h-4l-484 -672h-114z" />
<glyph unicode="Y" horiz-adv-x="1277" d="M57 1421v13h113l467 -727h4l467 727h111v-15l-529 -823v-596h-102v596z" />
<glyph unicode="Z" horiz-adv-x="1181" d="M37 0v12l598 881l315 450l-381 -4h-463v95h1006v-17l-618 -905l-299 -424l559 8h358v-96h-1075z" />
<glyph unicode="[" horiz-adv-x="577" d="M180 -344v1876h312v-82h-218v-1706h218v-88h-312z" />
<glyph unicode="\" horiz-adv-x="937" d="M70 1434h104l692 -1432h-102z" />
<glyph unicode="]" horiz-adv-x="577" d="M86 -256h217v1706h-217v82h311v-1876h-311v88z" />
<glyph unicode="^" horiz-adv-x="1032" d="M133 866l342 564h74l350 -564h-94l-293 469l-285 -469h-94z" />
<glyph unicode="_" horiz-adv-x="1261" d="M145 -27h971v-88h-971v88z" />
<glyph unicode="`" horiz-adv-x="688" d="M213 1425v11l86 41l176 -269v-6h-90z" />
<glyph unicode="a" d="M82 283q0 81 31.5 145.5t85.5 104t122 60.5t144 21q201 0 366 -86v152q0 69 -29 118.5t-79 75.5t-105 37t-120 11q-188 0 -318 -76l-22 82q148 82 352 82q84 0 155.5 -18t131.5 -55.5t94.5 -103.5t34.5 -155l-2 -451v-15q0 -92 13 -119q18 -38 80 -38q15 0 32 2l4 -67 q-39 -6 -70 -6q-67 0 -97 30q-39 39 -39 140q0 12 1 24q-55 -100 -167.5 -147t-248.5 -47q-88 0 -167 34.5t-131 104.5t-52 160zM178 287q3 -73 42.5 -123.5t98.5 -73t130 -22.5q84 0 160.5 24t139 80t82.5 137v133q-168 90 -343 90h-11q-121 0 -212 -65q-87 -62 -87 -170 v-10z" />
<glyph unicode="b" horiz-adv-x="1175" d="M160 66v1433h98v-614q88 65 185 95q85 27 163 27q12 1 24 -1q90 -4 171 -41.5t141 -101t95.5 -159.5t35.5 -212v-12q1 -122 -37 -218q-40 -100 -109 -158t-160 -90.5t-194 -33.5h-9q-100 0 -200 21q-106 22 -204 65zM256 129q84 -31 168 -45q71 -12 140 -12h25 q81 2 150.5 29.5t122.5 75.5t83 128.5t30 186.5q-2 105 -35 188t-87 134t-126 77q-62 23 -130 23q-11 0 -21 -1q-78 -4 -161.5 -37t-158.5 -94v-653z" />
<glyph unicode="c" horiz-adv-x="1161" d="M100 498q0 99 30 184.5t82 145t120 102t144 62.5q72 19 147 18h8q149 -3 269 -79t167 -216h-96q-43 99 -135 152t-203 55h-6q-78 0 -151 -26q-76 -27 -138.5 -78.5t-100.5 -134.5t-38 -185q0 -101 36 -183.5t96 -134t134 -79t153 -27.5q120 0 218.5 60.5t142.5 174.5h98 q-49 -156 -177 -239.5t-286 -83.5q-97 0 -187.5 33t-164 95t-118 161.5t-44.5 222.5z" />
<glyph unicode="d" horiz-adv-x="1228" d="M102 498q0 113 37 208t99 158t146 100q84 36 174 40q11 0 21 1q81 0 167 -27q98 -30 184 -95v618h96v-1323q0 -70 26 -93q18 -16 60 -16q18 0 41 3l4 -76q-40 -6 -71 -6q-66 0 -98 28q-46 42 -46 160v51q-48 -123 -149.5 -183t-237.5 -60q-107 0 -194.5 41.5t-143 112 t-85.5 162.5t-30 196zM201 498q0 -115 39 -209t124 -154.5t203 -60.5q159 0 258.5 108.5t104.5 268.5v329q-74 62 -159 96t-165 38h-19q-70 0 -135 -23q-74 -26 -129.5 -77t-88.5 -133t-33 -183z" />
<glyph unicode="e" horiz-adv-x="1144" d="M102 528q12 223 148.5 351.5t351.5 128.5q242 -2 360 -138q87 -101 86 -262q0 -56 -10 -119h-837q0 -206 117.5 -311t320.5 -110q181 3 342 75l20 -84q-178 -79 -360 -79q-167 0 -291 62q-124 63 -190 188q-59 112 -59 261q0 18 1 37zM203 573h753q2 22 2 44 q0 86 -36 150q-44 81 -128 120t-196 39q-166 0 -272 -94t-123 -259z" />
<glyph unicode="f" horiz-adv-x="782" d="M51 901v86h232v178q0 128 47 210t126 111q62 23 134 23q19 0 38 -1q95 -8 197 -52l-20 -80q-80 35 -153 44q-24 3 -47 3q-46 0 -87 -12q-63 -18 -100 -81t-37 -167v-176h381v-86h-381v-901h-98v901h-232z" />
<glyph unicode="g" horiz-adv-x="1179" d="M104 496q0 247 147.5 379.5t387.5 132.5q178 -3 381 -95v-1001q0 -116 -35.5 -205t-97.5 -143t-140.5 -81t-171.5 -28h-11q-201 0 -392 111l25 90q188 -109 378 -109q74 0 135 20.5t110 62.5t76.5 114t27.5 168v174q-166 -110 -346 -113h-11q-91 0 -171 30 q-85 32 -150.5 95.5t-103.5 166t-38 231.5zM203 496q0 -109 30.5 -194t83.5 -137t120.5 -78t146.5 -26q180 0 340 129v658q-147 63 -291 63q-199 0 -314.5 -105t-115.5 -310z" />
<glyph unicode="h" horiz-adv-x="1177" d="M166 0v1499h96v-672q103 185 369 185q78 0 148 -28t125 -80t87.5 -134t32.5 -182v-588h-100v588q0 160 -84 248t-238 88q-156 0 -248 -97.5t-92 -251.5v-575h-96z" />
<glyph unicode="i" horiz-adv-x="440" d="M154 1333q0 34 20.5 53t48.5 17q27 -2 46.5 -20t19.5 -50t-18.5 -49.5t-45.5 -19.5q-28 -2 -49.5 17t-21.5 52zM172 0v981h96v-981h-96z" />
<glyph unicode="j" horiz-adv-x="442" d="M-104 -510l4 80q40 -7 73.5 -7.5t59.5 4.5t46 17t34.5 27t25 37.5t17 46t10 56t5 62.5t1.5 70v1100h98v-1100q0 -75 -7 -132.5t-24 -109t-44.5 -83.5t-69.5 -54.5t-99 -23.5h-9q-53 0 -121 10zM154 1333q0 33 19.5 51.5t47.5 18.5q27 0 47.5 -19t20.5 -51t-19.5 -49.5 t-46.5 -19.5q-28 -2 -48.5 16.5t-20.5 52.5z" />
<glyph unicode="k" horiz-adv-x="1071" d="M166 2v1495h98v-940h164q219 0 329.5 106t110.5 326h95v-7q0 -374 -308 -468l357 -500v-12h-105l-342 483q-65 -12 -139 -12h-162v-471h-98z" />
<glyph unicode="l" horiz-adv-x="536" d="M158 371v1130h100v-1128q0 -86 9.5 -139.5t37 -95.5t83.5 -55q29 -7 66 -7q35 0 76 6l5 -84q-56 -8 -103 -8q-44 0 -82 8q-74 16 -116 66t-59 123t-17 184z" />
<glyph unicode="m" horiz-adv-x="1826" d="M70 985q38 7 70 7q59 0 95 -25q56 -39 56 -146q56 91 153 141q90 46 197 46h18q105 -5 183 -57.5t112 -157.5q98 215 377 215q73 0 132.5 -24t97.5 -63.5t63.5 -92.5t36 -108.5t10.5 -115.5v-604h-100v604q0 63 -12.5 116.5t-40 100t-79 73t-122.5 26.5 q-145 0 -235.5 -100.5t-90.5 -241.5v-578h-96v578q0 72 -14 131.5t-44 108t-82.5 75.5t-123.5 27q-153 0 -243.5 -93.5t-90.5 -246.5v-580h-98v723q1 111 -23 149q-18 29 -69 29q-15 0 -33 -2z" />
<glyph unicode="n" horiz-adv-x="1202" d="M68 991q43 6 77 6q60 0 92 -20q50 -32 50 -146q66 97 155 139q85 41 198 40h11q184 0 291 -114t107 -296v-600h-99v600q0 146 -88.5 232t-232.5 86q-148 0 -242 -91t-94 -243v-584h-98v731q-1 121 -23 153q-16 24 -63 24q-17 0 -39 -3z" />
<glyph unicode="o" horiz-adv-x="1236" d="M100 496q0 123 44.5 223t117.5 161.5t166 94.5t190.5 33t190.5 -33t166 -94.5t117.5 -161.5t44.5 -223t-44.5 -222.5t-117.5 -160.5t-166 -94.5t-190.5 -33.5t-190.5 33.5t-166 94.5t-117.5 160.5t-44.5 222.5zM199 496q0 -101 36 -183t95 -132.5t134.5 -78t154 -27.5 t154 27t134.5 77.5t95 132.5t36 184t-36 184.5t-95 133t-134.5 78t-154 27.5t-154 -27.5t-134.5 -78t-95 -133t-36 -184.5z" />
<glyph unicode="p" horiz-adv-x="1220" d="M66 997q35 6 63 6q69 0 103 -33q49 -45 49 -153v-29q109 224 391 224q105 0 191.5 -42t141.5 -113.5t85 -163.5t30 -195q0 -114 -36.5 -209.5t-98 -159t-145 -100.5t-174.5 -41h-20q-81 0 -168 27q-97 31 -185 96v-621h-96v1196v33v38t-0.5 35t-2 31.5t-4.5 27.5t-8 23.5 t-11.5 18.5t-16 14t-21.5 8.5t-28 2.5t-35 -3zM293 213q74 -62 158.5 -95.5t164.5 -37.5h18q70 0 135 23q74 26 129.5 77t88.5 133.5t33 184.5q0 84 -23.5 159.5t-68 134.5t-115 93.5t-158.5 34.5q-159 0 -258 -108.5t-104 -268.5v-330z" />
<glyph unicode="q" horiz-adv-x="1183" d="M104 498v12q0 127 40 224q42 101 117.5 160t170.5 88q91 28 198 28h7q192 -3 385 -86v-1436h-98v618q-168 -122 -351 -122q-95 0 -179.5 34.5t-149.5 98t-102.5 162.5t-37.5 219zM203 498q3 -197 110 -307.5t267 -110.5q179 0 346 133v647q-147 64 -293 64 q-89 0 -165.5 -25t-137 -74.5t-94.5 -133.5q-33 -82 -33 -187v-6z" />
<glyph unicode="r" horiz-adv-x="874" d="M70 985q46 8 83 8q57 0 89 -19q54 -31 53 -118q47 83 127 120q71 33 152 33q11 0 22 -1q147 -3 252 -78l-35 -86q-90 67 -225 67q-116 0 -202.5 -75.5t-86.5 -196.5v-639h-98v760q0 45 -2.5 66.5t-14 44.5t-38.5 29q-14 3 -33 4q-17 0 -39 -3z" />
<glyph unicode="s" horiz-adv-x="1044" d="M92 268h96q8 -68 59.5 -117t123.5 -70.5t155 -21.5q85 0 157.5 21.5t121.5 70t49 115.5q0 46 -22 81t-45 53t-76.5 33t-76 18.5t-84.5 10.5q-15 2 -22 3q-51 6 -85.5 11t-80.5 15t-77.5 22t-65 31.5t-53 44t-32.5 59.5t-13 77q0 60 22 108t59.5 80t89.5 53t108.5 30.5 t119.5 9.5q106 0 195 -27.5t147 -88.5t58 -145h-91q0 59 -45.5 100.5t-113 60t-148.5 18.5q-80 0 -150 -19.5t-118 -65.5q-43 -42 -43 -100v-12q0 -42 24 -74t52.5 -48.5t82.5 -29t80.5 -15.5t80.5 -8q7 -1 10 -1q53 -7 87.5 -12.5t82 -17t78.5 -24.5t64.5 -34.5t52.5 -48 t31 -64.5q11 -35 11 -77v-7q0 -71 -34.5 -127.5t-94 -91t-135 -52.5t-160.5 -18q-81 0 -153 16.5t-132.5 50t-99.5 91t-47 133.5z" />
<glyph unicode="t" horiz-adv-x="831" d="M49 909v76h225l9 303h90v-303h383v-82h-383v-532q0 -148 47.5 -222.5t140.5 -79.5q9 0 18 -1q88 0 212 45l14 -86q-135 -45 -238 -45q-26 0 -49 3q-118 14 -181 110.5t-63 273.5v534z" />
<glyph unicode="u" horiz-adv-x="1183" d="M156 387v600h98v-600q0 -146 88.5 -231.5t232.5 -85.5h3q146 0 228 88q84 90 83 245v584h98v-735q1 -122 23 -154q16 -24 63 -23q17 0 39 3l2 -82q-42 -6 -76 -6q-60 0 -90 20q-48 32 -49 146q-67 -100 -146.5 -139.5t-199.5 -39.5q-184 0 -290.5 114t-106.5 296z" />
<glyph unicode="v" horiz-adv-x="1081" d="M59 977v10h109l371 -825l376 825h105v-10l-457 -981h-43z" />
<glyph unicode="w" horiz-adv-x="1517" d="M70 977v10h104l164 -440l123 -365h4l272 781h39l273 -783h2l127 367l163 440h107v-10l-373 -981h-53l-266 756l-264 -756h-52z" />
<glyph unicode="x" horiz-adv-x="962" d="M35 0v10l397 514l-340 453v10h98l293 -395h4l299 395h101v-10l-350 -457l383 -510v-10h-97l-336 451h-4l-346 -451h-102z" />
<glyph unicode="y" horiz-adv-x="1110" d="M53 977v8h105l405 -883h2l375 883h100v-8l-444 -1034q-8 -19 -24 -58q-26 -65 -41 -99t-45 -92.5t-54.5 -88t-64 -64t-79.5 -43.5q-27 -7 -62 -7q-15 0 -31 1q-54 4 -115 31l20 88q59 -27 108 -27q1 -1 3 -1q47 0 79 17q34 16 64.5 55.5t49.5 78t42 96.5l68 158z" />
<glyph unicode="z" horiz-adv-x="933" d="M53 0v14l645 887h-596v86h756v-18l-635 -877h629v-92h-799z" />
<glyph unicode="{" horiz-adv-x="581" d="M86 573v76q119 18 119 234v403q0 153 68 208.5t223 55.5v-77q-107 0 -152 -41t-45 -148v-410q0 -38 -5 -74.5t-17 -74.5t-36 -68t-57 -45q115 -50 115 -264v-418q0 -62 10.5 -99t37 -55.5t59 -24t90.5 -5.5v-84q-157 0 -224 55.5t-67 210.5v414q0 213 -119 231z" />
<glyph unicode="|" horiz-adv-x="462" d="M186 -156v1586h90v-1586h-90z" />
<glyph unicode="}" horiz-adv-x="575" d="M86 -254q107 -2 152 38t45 146v418q0 214 114 264q-114 52 -114 262v410q0 107 -45 148t-152 41v77q155 0 223 -55.5t68 -208.5v-403q0 -28 1 -47t4 -48t10.5 -49t19 -40.5t31.5 -33t46 -16.5v-76q-112 -17 -112 -231v-414q0 -155 -67 -210.5t-224 -55.5v84z" />
<glyph unicode="~" horiz-adv-x="1245" d="M145 653q47 103 133 147t182 30t189 -76q285 -195 389 49q13 -7 34.5 -16.5t35.5 -16.5q-38 -88 -93 -135.5t-120 -53t-134.5 17t-144.5 71.5q-56 36 -111 55.5t-110.5 20t-103.5 -31.5t-80 -96z" />
<glyph unicode="&#xa1;" horiz-adv-x="440" d="M154 936q0 29 19.5 46t49.5 17t48 -17t18 -46q0 -30 -18 -47t-48 -17t-49.5 17t-19.5 47zM166 -461l4 1172h100l6 -1172h-110z" />
<glyph unicode="&#xa2;" horiz-adv-x="1234" d="M133 498q0 94 27.5 176.5t75 140.5t110.5 103t134 65.5t146.5 26.5t147.5 -13l53 154h56l-58 -166q97 -33 169 -103t106 -171l-92 -11q-56 143 -213 197l-277 -807q74 -25 153 -19.5t147.5 32.5t124 86t83.5 139l94 -9q-24 -83 -73 -148.5t-113 -106t-139 -62 t-153.5 -20.5t-152.5 24l-57 -166h-55l61 185q-136 58 -220.5 178.5t-84.5 294.5zM231 498q0 -140 65.5 -237t172.5 -148l276 798q-90 16 -180 -2.5t-165 -67.5t-122 -138.5t-47 -204.5z" />
<glyph unicode="&#xa3;" horiz-adv-x="1341" d="M100 688v84h176q-33 203 9 354.5t166 238.5t321 87q108 0 209.5 -34t177.5 -101l-41 -76q-140 122 -342 119q-252 -4 -344.5 -148t-54.5 -440h520v-84h-508q21 -109 25 -179.5t-11 -156.5q-12 -66 -28.5 -110t-55.5 -99q66 31 159.5 23.5t163.5 -29.5t163.5 -45.5 t159.5 -23.5q90 0 135 52.5t45 182.5h86q6 -169 -57.5 -246t-194.5 -77q-56 0 -144.5 18.5t-169.5 38t-165.5 31t-158.5 -4t-122 -63.5h-102v12q97 97 143 185.5t57 224.5q2 81 -30 266h-187z" />
<glyph unicode="&#xa4;" horiz-adv-x="1095" d="M139 352l123 123q-76 97 -76 221q0 123 72 215l-119 121l60 60l116 -119q102 74 231 72t228 -76l123 123l59 -60l-120 -121q67 -98 67 -215q0 -127 -72 -219l125 -125l-59 -59l-125 125q-100 -70 -226.5 -71t-221.5 71l-125 -125zM270 696q0 -65 24 -117.5t62.5 -84.5 t88.5 -49.5t101.5 -17.5t101.5 17.5t88.5 49.5t62.5 84.5t24 117.5t-24 117.5t-62.5 84.5t-88.5 49.5t-101.5 17.5t-101.5 -17.5t-88.5 -49.5t-62.5 -84.5t-24 -117.5z" />
<glyph unicode="&#xa5;" horiz-adv-x="1087" d="M76 1421v13h112l357 -736l358 736h109v-13l-394 -780h271v-84h-293v-137h293v-76h-293v-344h-104v344h-295v76h295v137h-295v84h270z" />
<glyph unicode="&#xa6;" horiz-adv-x="471" d="M190 -20v622h91v-622h-91zM190 815v615h91v-615h-91z" />
<glyph unicode="&#xa7;" horiz-adv-x="1312" d="M115 25h100q4 -70 49.5 -123t115 -80.5t142.5 -40t142 -10.5q53 2 106.5 10.5t111 28.5t101 48t72 72.5t28.5 98.5q0 52 -19.5 92.5t-57.5 66.5t-79 43.5t-99 28t-101 16t-102 10.5t-86 9q-64 7 -115.5 19t-102 35t-85 54.5t-57 80.5t-25.5 112q-7 110 60.5 184 t178.5 109q-102 27 -166.5 91.5t-64.5 162.5q0 85 43.5 152t115.5 106t155.5 58.5t172.5 19.5q64 2 130 -7.5t131.5 -34t116.5 -60.5t84 -92t36 -124h-92q-4 65 -44.5 113.5t-103.5 74.5t-127.5 38t-128.5 12q-56 0 -109 -8.5t-104.5 -27.5t-90 -48t-62 -72.5t-23.5 -97.5 q0 -35 11.5 -64t29 -49t49 -36.5t60 -26.5t74 -19t80 -13.5t87.5 -10.5q54 -5 90 -9.5t85.5 -12t82.5 -16.5t74 -23t67 -30.5t53.5 -40.5t43 -52.5t25.5 -66t10 -81.5q-1 -100 -63 -175t-160 -114q108 -35 165.5 -99t57.5 -177q0 -71 -33.5 -129.5t-86.5 -96.5t-123.5 -64 t-139 -38t-137.5 -14t-141 8t-144.5 35t-129.5 63t-94 98t-40 134zM258 598q4 -59 27.5 -100t67 -64.5t90 -34.5t112.5 -18q11 -2 125 -14.5t172 -26.5q94 27 160.5 96t66.5 160q0 36 -8.5 65.5t-27.5 52t-40 39.5t-56 29.5t-64.5 21.5t-76 16t-80 11t-87.5 9q-10 1 -58 6 t-73 10q-105 -23 -181 -92t-69 -166z" />
<glyph unicode="&#xa8;" horiz-adv-x="1048" d="M274 1380q0 31 19.5 49.5t50.5 18.5q30 0 50 -19t20 -49q0 -26 -20.5 -44.5t-49.5 -18.5q-30 0 -50 18t-20 45zM723 1380q0 31 19.5 49.5t50.5 18.5q30 0 49.5 -19t19.5 -49q0 -26 -20 -44.5t-49 -18.5q-30 0 -50 18t-20 45z" />
<glyph unicode="&#xa9;" horiz-adv-x="1628" d="M125 711q0 167 59 302.5t156 219t221 128.5t253 45t253 -45t221 -128.5t156 -219t59 -302.5q0 -135 -38.5 -249.5t-104.5 -195.5t-154.5 -138t-187.5 -84t-204 -27t-204 27t-187.5 84t-154.5 138t-104.5 195.5t-38.5 249.5zM205 711q0 -150 52.5 -272t138 -196.5 t195 -115t223.5 -40.5t223.5 40.5t195 115t138 196.5t52.5 272t-52.5 271.5t-138 196t-195 115t-223.5 40.5t-223.5 -40.5t-195 -115t-138 -196t-52.5 -271.5zM483 709q0 96 42 171t106.5 115t143 52.5t150 -5t129 -70.5t79.5 -132l-68 -6q-15 51 -51 88t-82.5 51.5 t-98.5 16t-101 -19t-89 -53.5t-64 -87.5t-24 -120.5q0 -121 77.5 -195.5t196.5 -79.5q82 -2 150 40.5t96 125.5l68 -6q-18 -62 -56.5 -109.5t-88 -74.5t-107.5 -37t-115 -3t-110 33.5t-93.5 67t-65 102.5t-24.5 136z" />
<glyph unicode="&#xaa;" horiz-adv-x="1019" d="M156 924q0 81 42.5 138t105.5 82t138 25q143 -3 256 -61v76q0 53 -18.5 89.5t-53.5 55.5t-75.5 27t-93.5 8q-128 0 -217 -55l-21 71q112 64 246 64q143 0 229 -63t86 -197v-344q0 -51 18.5 -68.5t65.5 -11.5l6 -62q-77 -13 -122 15t-41 112q-39 -67 -118.5 -100 t-172.5 -33q-107 0 -183.5 61t-76.5 171zM197 449v81h645v-81h-645zM240 926q0 -75 53 -116.5t133 -41.5q92 0 169.5 38t100.5 114v114q-112 62 -243 62q-89 0 -151 -42t-62 -128z" />
<glyph unicode="&#xab;" horiz-adv-x="917" d="M123 709l260 436l80 -25l-219 -411l219 -408l-80 -27zM438 709l260 436l80 -25l-219 -411l219 -408l-80 -27z" />
<glyph unicode="&#xac;" horiz-adv-x="1122" d="M166 664v88h799v-459h-84v371h-715z" />
<glyph unicode="&#xad;" horiz-adv-x="931" d="M145 639v88h641v-88h-641z" />
<glyph unicode="&#xae;" horiz-adv-x="1624" d="M125 717q0 167 59 302.5t155.5 219t220 128.5t252.5 45t252.5 -45t220 -128.5t155.5 -219t59 -302.5t-59 -302.5t-155.5 -219t-220 -128.5t-252.5 -45t-252.5 45t-220 128.5t-155.5 219t-59 302.5zM203 717q0 -150 52.5 -272t138 -196.5t195 -115t223.5 -40.5t223.5 40.5 t195 115t138 196.5t52.5 272t-52.5 271.5t-138 196t-195 115t-223.5 40.5t-223.5 -40.5t-195 -115t-138 -196t-52.5 -271.5zM602 379v672h264q100 0 165 -58.5t65 -156.5q0 -81 -48 -137t-126 -68l196 -244v-8h-76l-192 244h-178v-244h-70zM672 684h190q71 0 117.5 41 t46.5 111q0 67 -47 109t-117 42h-190v-303z" />
<glyph unicode="&#xaf;" horiz-adv-x="1021" d="M199 1343v84h585v-84h-585z" />
<glyph unicode="&#xb0;" horiz-adv-x="868" d="M115 1145q0 72 27.5 130.5t72 94.5t102 55.5t117 19.5t117 -19.5t102 -55.5t72 -94.5t27.5 -130.5q0 -73 -27.5 -132t-72 -95t-102 -55t-117 -19t-117 19.5t-102 56t-72 95t-27.5 130.5zM193 1145q0 -73 35.5 -127t88.5 -78.5t115.5 -24.5t115.5 24.5t88.5 78.5t35.5 127 t-35.5 126.5t-88.5 78t-115.5 24.5t-115.5 -24t-88.5 -78t-35.5 -127z" />
<glyph unicode="&#xb1;" horiz-adv-x="1064" d="M160 111v88h743v-88h-743zM182 707v81h312v312h81v-312h312v-81h-312v-330h-81v330h-312z" />
<glyph unicode="&#xb2;" horiz-adv-x="831" d="M139 778v19l373 413q62 64 74.5 137t-33.5 124t-141 51q-168 0 -183 -152h-69q13 219 252 219q120 0 187 -69t61 -167t-82 -182l-295 -319h401v-74h-545z" />
<glyph unicode="&#xb3;" horiz-adv-x="782" d="M100 991h74q12 -74 66 -114.5t137 -40.5q99 0 159 50t60 142q0 51 -28 91.5t-71.5 60t-96 26.5t-101.5 -10v21l231 292h-395v68h524v-14l-239 -301q106 7 180 -64t74 -170q0 -118 -80.5 -190t-214.5 -72q-118 0 -193.5 59t-85.5 166z" />
<glyph unicode="&#xb4;" horiz-adv-x="620" d="M158 1163v6l176 269l86 -41v-11l-172 -223h-90z" />
<glyph unicode="&#xb5;" horiz-adv-x="1155" d="M174 -512v1501h96v-573q0 -162 83.5 -252t242.5 -90q152 0 243 95t91 249v571h96v-989h-96v178q-58 -105 -133.5 -150.5t-198.5 -45.5q-125 0 -201 37.5t-127 125.5v-657h-96z" />
<glyph unicode="&#xb6;" horiz-adv-x="1447" d="M73.5 904.5q-2.5 99.5 28 194t89.5 169t157.5 119.5t222.5 45h678v-1821h-98v1730h-492v-1730h-100v754q-112 3 -205 50.5t-152.5 123t-92.5 171t-35.5 195z" />
<glyph unicode="&#xb7;" horiz-adv-x="436" d="M145 731q0 31 21 50.5t51 19.5q32 0 53 -19t21 -51q0 -29 -21.5 -47t-52.5 -18q-30 0 -51 18t-21 47z" />
<glyph unicode="&#xb8;" horiz-adv-x="802" d="M211 -395l4 80q38 -38 105.5 -55t130 0.5t79.5 70.5q14 41 0 73.5t-45.5 49t-68.5 23.5t-72 3l43 170h78l-33 -122q97 0 150.5 -61t25.5 -154q-23 -76 -97.5 -111.5t-158 -24.5t-141.5 58z" />
<glyph unicode="&#xb9;" horiz-adv-x="663" d="M119 778v68h172v665h-152v68h232v-733h174v-68h-426z" />
<glyph unicode="&#xba;" d="M145 1090q0 94 34.5 169.5t90.5 122t128 72t147.5 25.5t147.5 -25.5t128 -72t90.5 -122t34.5 -169.5q0 -93 -34.5 -168.5t-90.5 -122t-128 -71.5t-147.5 -25t-147.5 25t-128 71.5t-90.5 122t-34.5 168.5zM176 440v88h754v-88h-754zM242 1090q0 -73 26 -132t69 -95t98 -56 t112 -20t112 20t98 56t69 95t26 132q0 96 -45 167t-113 102.5t-147 31.5t-147 -31.5t-113 -102.5t-45 -167z" />
<glyph unicode="&#xbb;" horiz-adv-x="917" d="M139 301l219 408l-219 411l80 25l260 -436l-260 -435zM455 301l219 408l-219 411l80 25l260 -436l-260 -435z" />
<glyph unicode="&#xbc;" horiz-adv-x="1744" d="M106 649v68h173v665h-154v68h233v-733h174v-68h-426zM494 2l692 1432h94l-694 -1432h-92zM1055 182v39l436 582h80v-549h90v-72h-90v-180h-76v180h-440zM1174 252h325v207q0 40 2 117.5t2 117.5h-2z" />
<glyph unicode="&#xbd;" horiz-adv-x="1798" d="M106 649v68h173v665h-154v68h233v-733h174v-68h-426zM489 2l693 1432h94l-694 -1432h-93zM1159 0v18l373 414q62 64 74.5 136.5t-33.5 123.5t-141 51q-168 0 -183 -151h-69q13 219 252 219q90 0 152 -41.5t83 -103.5t3.5 -136.5t-73.5 -136.5l-294 -319h401v-74h-545z " />
<glyph unicode="&#xbe;" horiz-adv-x="1789" d="M96 864h74q12 -74 66 -114.5t137 -40.5q99 0 159 50t60 142q0 51 -28 91.5t-71.5 60t-96 26.5t-101.5 -10v21l231 292h-395v68h524v-14l-239 -301q106 7 180 -64t74 -170q0 -118 -80.5 -190t-214.5 -72q-118 0 -193.5 59t-85.5 166zM541 2l692 1432h94l-694 -1432h-92z M1092 182v39l446 582h80v-551h90v-70h-90v-180h-76v180h-450zM1210 250h336v209q0 40 2 117.5t2 117.5h-2z" />
<glyph unicode="&#xbf;" horiz-adv-x="974" d="M76 -61q5 68 29.5 124.5t59 97.5t75 80.5t79.5 83.5t70.5 95.5t49 128t14.5 170.5h100q2 -108 -17 -194t-51 -141.5t-71 -100.5t-79 -82t-74 -74t-57 -88t-26 -113q-4 -75 21 -132t71 -89.5t102 -48.5t120 -16q62 0 117 12.5t102.5 40t75.5 77.5t28 117h90 q0 -88 -33.5 -155.5t-92 -108t-132 -60.5t-158.5 -20q-67 0 -129 14.5t-117.5 46.5t-95 77.5t-59.5 112t-12 145.5zM436 942q0 29 19.5 47.5t48.5 18.5q30 0 49.5 -18.5t19.5 -47.5q0 -28 -19.5 -44.5t-49.5 -16.5t-49 16t-19 45z" />
<glyph unicode="&#xc0;" horiz-adv-x="1449" d="M31 0v12l671 1426h48l665 -1426v-12h-106l-195 414h-780l-195 -414h-108zM369 504h710l-354 764zM510 1782v10l86 41l176 -268v-6h-90z" />
<glyph unicode="&#xc1;" horiz-adv-x="1449" d="M31 0v12l671 1426h48l665 -1426v-12h-106l-195 414h-780l-195 -414h-108zM369 504h710l-354 764zM662 1554v7l176 268l86 -41v-10l-172 -224h-90z" />
<glyph unicode="&#xc2;" horiz-adv-x="1449" d="M31 0v12l671 1426h48l665 -1426v-12h-106l-195 414h-780l-195 -414h-108zM369 504h710l-354 764zM395 1532v10l281 254h100l279 -256v-8h-107l-221 201l-225 -201h-107z" />
<glyph unicode="&#xc3;" horiz-adv-x="1449" d="M31 0v12l671 1426h48l665 -1426v-12h-106l-195 414h-780l-195 -414h-108zM369 504h710l-354 764zM424 1591q55 95 140.5 117t191.5 -39q64 -44 116.5 -36.5t94.5 77.5q14 -6 33.5 -18.5t23.5 -14.5q-49 -95 -127.5 -117.5t-179.5 37.5q-67 46 -126 38t-104 -79 q-8 5 -31.5 17.5t-31.5 17.5z" />
<glyph unicode="&#xc4;" horiz-adv-x="1449" d="M31 0v12l671 1426h48l665 -1426v-12h-106l-195 414h-780l-195 -414h-108zM369 504h710l-354 764zM432 1632q0 31 19.5 49.5t50.5 18.5q30 0 49.5 -19t19.5 -49q0 -26 -20 -44.5t-49 -18.5q-30 0 -50 18t-20 45zM881 1632q0 31 19 49.5t50 18.5q30 0 50 -19t20 -49 q0 -26 -20.5 -44.5t-49.5 -18.5q-30 0 -49.5 18t-19.5 45z" />
<glyph unicode="&#xc5;" horiz-adv-x="1449" d="M31 0v12l665 1413q-83 5 -142.5 60.5t-59.5 146.5q0 68 33.5 117.5t84 72t109.5 22.5t109.5 -22t84 -72t33.5 -118q0 -89 -56.5 -143t-137.5 -62l661 -1415v-12h-106l-197 414h-776l-197 -414h-108zM371 504h706l-352 756zM571 1632q0 -64 46.5 -100t103 -36t103 36 t46.5 100q0 43 -22 75t-55.5 46.5t-72 14.5t-72 -14.5t-55.5 -46.5t-22 -75z" />
<glyph unicode="&#xc6;" horiz-adv-x="1687" d="M31 0v14l762 1416h763v-93h-622v-549h594v-92h-594v-604h631v-92h-723v442h-471l-236 -442h-104zM410 530h432l2 801z" />
<glyph unicode="&#xc7;" horiz-adv-x="1560" d="M111 717q0 215 93 383t257 260t370 92q212 -5 383 -112.5t242 -305.5h-102q-73 152 -213.5 236t-311.5 84q-273 4 -443.5 -177t-170.5 -460q0 -135 44.5 -252t123.5 -202t194.5 -134t251.5 -49q181 0 325.5 91t209.5 255h102q-64 -198 -223 -312t-364 -126l-27 -113 q97 0 150 -62t24 -151q-23 -77 -97.5 -111.5t-158 -22.5t-141.5 58l4 78q39 -39 105 -55.5t127.5 3t78.5 77.5q13 46 -14.5 77.5t-73 42t-94.5 5.5l39 172q-302 8 -496 211.5t-194 519.5z" />
<glyph unicode="&#xc8;" horiz-adv-x="1165" d="M203 0v1434h827v-91h-725v-557h694v-92h-694v-600h731v-94h-833zM451 1798v10l86 41l176 -268v-6h-90z" />
<glyph unicode="&#xc9;" horiz-adv-x="1165" d="M203 0v1434h827v-91h-725v-557h694v-92h-694v-600h731v-94h-833zM549 1569v6l176 268l86 -41v-10l-172 -223h-90z" />
<glyph unicode="&#xca;" horiz-adv-x="1165" d="M203 0v1434h827v-91h-725v-557h694v-92h-694v-600h731v-94h-833zM313 1579v10l269 250h96l266 -252v-8h-102l-211 197l-215 -197h-103z" />
<glyph unicode="&#xcb;" horiz-adv-x="1165" d="M203 0v1434h827v-91h-725v-557h694v-92h-694v-600h731v-94h-833zM334 1655q0 31 19 49t50 18q30 0 50 -18.5t20 -48.5q0 -26 -20.5 -45t-49.5 -19q-30 0 -49.5 18.5t-19.5 45.5zM782 1655q0 30 19.5 48.5t50.5 18.5q30 0 50 -18.5t20 -48.5q0 -26 -20.5 -45t-49.5 -19 q-30 0 -50 18.5t-20 45.5z" />
<glyph unicode="&#xcc;" horiz-adv-x="782" d="M68 0v84h272v1266h-254v84h610v-84h-254v-1266h273v-84h-647zM195 1780v10l86 41l176 -268v-7h-90z" />
<glyph unicode="&#xcd;" horiz-adv-x="782" d="M68 0v84h272v1266h-254v84h610v-84h-254v-1266h273v-84h-647zM328 1559v6l176 268l86 -41v-10l-172 -223h-90z" />
<glyph unicode="&#xce;" horiz-adv-x="782" d="M68 0v84h272v1266h-254v84h610v-84h-254v-1266h273v-84h-647zM78 1552v11l268 247h96l267 -249v-9h-101l-213 195l-215 -195h-102z" />
<glyph unicode="&#xcf;" horiz-adv-x="782" d="M68 0v84h272v1266h-254v84h610v-84h-254v-1266h273v-84h-647zM102 1626q0 31 19.5 49.5t50.5 18.5q30 0 50 -19t20 -49q0 -26 -20.5 -44.5t-49.5 -18.5q-30 0 -50 18t-20 45zM551 1626q0 31 19.5 49.5t50.5 18.5q30 0 49.5 -19t19.5 -49q0 -26 -20 -44.5t-49 -18.5 q-30 0 -50 18t-20 45z" />
<glyph unicode="&#xd0;" horiz-adv-x="1505" d="M35 662v86h170v686h493q157 0 288.5 -57t220 -154.5t137.5 -228t49 -277.5q0 -149 -49.5 -280t-138 -228t-220 -153t-287.5 -56h-493v662h-170zM309 96h385q133 0 245.5 48t189 131t119 196.5t42.5 243.5q0 173 -72 314t-208.5 224.5t-313.5 83.5h-387v-589h273v-86h-273 v-566z" />
<glyph unicode="&#xd1;" horiz-adv-x="1521" d="M203 0v1436h41l981 -1207l-11 521v686h105v-1436h-35l-987 1210l10 -489v-721h-104zM471 1602q55 94 140.5 116t191.5 -39q64 -44 116.5 -36.5t94.5 77.5q10 -4 20 -9.5t20.5 -12.5t16.5 -10q-49 -95 -127.5 -117.5t-179.5 37.5q-67 45 -125.5 37.5t-103.5 -78.5 q-8 5 -32 17.5t-32 17.5z" />
<glyph unicode="&#xd2;" horiz-adv-x="1671" d="M111 717q0 163 55.5 301.5t152 234t230 149.5t285.5 54q207 0 372 -91.5t260 -261t95 -386.5q0 -215 -92 -383.5t-258 -262.5t-377 -94q-155 0 -288.5 54t-229.5 150t-150.5 234.5t-54.5 301.5zM215 717q0 -140 47 -260t129 -204t196.5 -131.5t246.5 -47.5q177 0 319 81 t222.5 228t80.5 334q0 186 -79.5 332.5t-221 227.5t-319.5 81t-319.5 -80.5t-221.5 -227t-80 -333.5zM629 1810v11l86 41l176 -269v-6h-90z" />
<glyph unicode="&#xd3;" horiz-adv-x="1671" d="M111 717q0 163 55.5 301.5t152 234t230 149.5t285.5 54q207 0 372 -91.5t260 -261t95 -386.5q0 -215 -92 -383.5t-258 -262.5t-377 -94q-155 0 -288.5 54t-229.5 150t-150.5 234.5t-54.5 301.5zM215 717q0 -140 47 -260t129 -204t196.5 -131.5t246.5 -47.5q177 0 319 81 t222.5 228t80.5 334q0 186 -79.5 332.5t-221 227.5t-319.5 81t-319.5 -80.5t-221.5 -227t-80 -333.5zM774 1589v6l176 269l86 -41v-11l-172 -223h-90z" />
<glyph unicode="&#xd4;" horiz-adv-x="1671" d="M111 717q0 163 55.5 301.5t152 234t230 149.5t285.5 54q207 0 372 -91.5t260 -261t95 -386.5q0 -215 -92 -383.5t-258 -262.5t-377 -94q-155 0 -288.5 54t-229.5 150t-150.5 234.5t-54.5 301.5zM215 717q0 -140 47 -260t129 -204t196.5 -131.5t246.5 -47.5q177 0 319 81 t222.5 228t80.5 334q0 186 -79.5 332.5t-221 227.5t-319.5 81t-319.5 -80.5t-221.5 -227t-80 -333.5zM510 1569v10l281 254h100l278 -256v-8h-106l-221 200l-226 -200h-106z" />
<glyph unicode="&#xd5;" horiz-adv-x="1671" d="M111 717q0 163 55.5 301.5t152 234t230 149.5t285.5 54q207 0 372 -91.5t260 -261t95 -386.5q0 -215 -92 -383.5t-258 -262.5t-377 -94q-155 0 -288.5 54t-229.5 150t-150.5 234.5t-54.5 301.5zM215 717q0 -140 47 -260t129 -204t196.5 -131.5t246.5 -47.5q177 0 319 81 t222.5 228t80.5 334q0 186 -79.5 332.5t-221 227.5t-319.5 81t-319.5 -80.5t-221.5 -227t-80 -333.5zM543 1663q55 95 140 117t191 -39q64 -44 116.5 -36.5t94.5 77.5q14 -6 35 -19t23 -14q-49 -95 -127.5 -117.5t-179.5 37.5q-67 46 -126 38t-104 -79q-8 5 -31.5 17.5 t-31.5 17.5z" />
<glyph unicode="&#xd6;" horiz-adv-x="1671" d="M111 717q0 163 55.5 301.5t152 234t230 149.5t285.5 54q207 0 372 -91.5t260 -261t95 -386.5q0 -215 -92 -383.5t-258 -262.5t-377 -94q-155 0 -288.5 54t-229.5 150t-150.5 234.5t-54.5 301.5zM215 717q0 -140 47 -260t129 -204t196.5 -131.5t246.5 -47.5q177 0 319 81 t222.5 228t80.5 334q0 186 -79.5 332.5t-221 227.5t-319.5 81t-319.5 -80.5t-221.5 -227t-80 -333.5zM543 1686q0 31 19 49t50 18q30 0 50 -18.5t20 -48.5q0 -26 -20.5 -45t-49.5 -19q-30 0 -49.5 18.5t-19.5 45.5zM991 1686q0 30 19.5 48.5t50.5 18.5q30 0 49.5 -18.5 t19.5 -48.5q0 -26 -20 -45t-49 -19q-30 0 -50 18.5t-20 45.5z" />
<glyph unicode="&#xd7;" horiz-adv-x="888" d="M152 946l57 58l235 -234l234 236l61 -62l-235 -235l229 -230l-57 -59l-232 231l-231 -231l-59 59l231 232z" />
<glyph unicode="&#xd8;" horiz-adv-x="1665" d="M111 713q0 163 55 302t151 234.5t228.5 149t285.5 53.5q187 0 345 -82l88 156h102v-8l-115 -195q303 -204 303 -610q0 -214 -94.5 -382t-259 -259.5t-369.5 -91.5q-182 0 -329 75l-103 -170h-104v11l127 206q-143 90 -227 246t-84 365zM213 713q0 -179 71 -313t193 -212 l647 1094q-130 68 -293 68q-269 0 -443.5 -177t-174.5 -460zM551 145q125 -67 280 -67q132 0 246.5 46.5t196.5 129t129 201.5t47 258q0 179 -69 311t-187 209z" />
<glyph unicode="&#xd9;" horiz-adv-x="1447" d="M188 492v942h103v-940q0 -195 119.5 -305.5t316.5 -110.5q195 0 313.5 110.5t118.5 305.5v940h101v-942q0 -236 -147.5 -373t-385.5 -137q-240 0 -389.5 137t-149.5 373zM543 1788v10l86 41l176 -268v-6h-90z" />
<glyph unicode="&#xda;" horiz-adv-x="1447" d="M188 492v942h103v-940q0 -195 119.5 -305.5t316.5 -110.5q195 0 313.5 110.5t118.5 305.5v940h101v-942q0 -236 -147.5 -373t-385.5 -137q-240 0 -389.5 137t-149.5 373zM649 1581v6l176 268l86 -40v-11l-172 -223h-90z" />
<glyph unicode="&#xdb;" horiz-adv-x="1447" d="M188 492v942h103v-940q0 -195 119.5 -305.5t316.5 -110.5q195 0 313.5 110.5t118.5 305.5v940h101v-942q0 -236 -147.5 -373t-385.5 -137q-240 0 -389.5 137t-149.5 373zM403 1575v10l281 254h100l279 -256v-8h-107l-221 201l-225 -201h-107z" />
<glyph unicode="&#xdc;" horiz-adv-x="1447" d="M188 492v942h103v-940q0 -195 119.5 -305.5t316.5 -110.5q195 0 313.5 110.5t118.5 305.5v940h101v-942q0 -236 -147.5 -373t-385.5 -137q-240 0 -389.5 137t-149.5 373zM430 1690q0 30 19.5 48.5t50.5 18.5q30 0 49.5 -18.5t19.5 -48.5q0 -26 -20 -45t-49 -19 q-30 0 -50 18.5t-20 45.5zM879 1690q0 31 19 49t50 18q30 0 50 -18.5t20 -48.5q0 -26 -20.5 -45t-49.5 -19q-30 0 -49.5 18.5t-19.5 45.5z" />
<glyph unicode="&#xdd;" horiz-adv-x="1277" d="M57 1421v13h113l467 -727h4l467 727h111v-15l-529 -823v-596h-102v596zM561 1559v6l176 268l86 -41v-10l-172 -223h-90z" />
<glyph unicode="&#xde;" horiz-adv-x="1331" d="M203 0v1434h102v-234h451q219 0 358 -133.5t139 -341.5q0 -207 -140 -340t-357 -133h-451v-252h-102zM303 342h453q170 0 283.5 107.5t113.5 277.5q0 169 -112 276t-285 107h-453v-768z" />
<glyph unicode="&#xdf;" horiz-adv-x="1187" d="M164 2v1030q0 92 22 164t58 118t89 76.5t108 44.5t123.5 16t127 -3.5t125.5 -18.5t112.5 -24.5t94.5 -26.5v-37l-371 -491q113 19 214 -31.5t162 -154.5t61 -232q0 -108 -29.5 -193.5t-82.5 -140.5t-127.5 -87.5t-164 -34t-192.5 21.5v86q219 -55 356 37.5t137 310.5 q0 82 -28 149t-75 108.5t-108 66.5t-127 22.5t-133 -22.5v51l367 508q-84 32 -168.5 46t-166.5 4.5t-145 -44t-102 -108t-39 -179.5v-1032h-98z" />
<glyph unicode="&#xe0;" d="M82 283q0 81 31.5 145.5t85.5 104t122 60.5t144 21q201 0 366 -86v152q0 69 -29 118.5t-79 75.5t-105 37t-120 11q-188 0 -318 -76l-22 82q148 82 352 82q84 0 155.5 -18t131.5 -55.5t94.5 -103.5t34.5 -155l-2 -451v-15q0 -92 13 -119q22 -47 112 -36l4 -67 q-123 -20 -166.5 23.5t-38.5 164.5q-55 -100 -167.5 -147t-248.5 -47q-88 0 -167 34.5t-131 104.5t-52 160zM178 287q3 -73 42.5 -123.5t98.5 -73t130 -22.5q84 0 160.5 24t139 80t82.5 137v133q-173 93 -354 90q-121 0 -212 -65t-87 -180zM381 1415v10l80 37l162 -245v-7 h-84z" />
<glyph unicode="&#xe1;" d="M82 283q0 81 31.5 145.5t85.5 104t122 60.5t144 21q201 0 366 -86v152q0 69 -29 118.5t-79 75.5t-105 37t-120 11q-188 0 -318 -76l-22 82q148 82 352 82q84 0 155.5 -18t131.5 -55.5t94.5 -103.5t34.5 -155l-2 -451v-15q0 -92 13 -119q22 -47 112 -36l4 -67 q-123 -20 -166.5 23.5t-38.5 164.5q-55 -100 -167.5 -147t-248.5 -47q-88 0 -167 34.5t-131 104.5t-52 160zM178 287q3 -73 42.5 -123.5t98.5 -73t130 -22.5q84 0 160.5 24t139 80t82.5 137v133q-173 93 -354 90q-121 0 -212 -65t-87 -180zM455 1204v6l166 252l81 -39v-8 l-161 -211h-86z" />
<glyph unicode="&#xe2;" d="M82 283q0 81 31.5 145.5t85.5 104t122 60.5t144 21q201 0 366 -86v152q0 69 -29 118.5t-79 75.5t-105 37t-120 11q-188 0 -318 -76l-22 82q148 82 352 82q84 0 155.5 -18t131.5 -55.5t94.5 -103.5t34.5 -155l-2 -451v-15q0 -92 13 -119q22 -47 112 -36l4 -67 q-123 -20 -166.5 23.5t-38.5 164.5q-55 -100 -167.5 -147t-248.5 -47q-88 0 -167 34.5t-131 104.5t-52 160zM178 287q3 -73 42.5 -123.5t98.5 -73t130 -22.5q84 0 160.5 24t139 80t82.5 137v133q-173 93 -354 90q-121 0 -212 -65t-87 -180zM254 1202v8l248 244h90l246 -246 v-6h-95l-196 193l-199 -193h-94z" />
<glyph unicode="&#xe3;" d="M82 283q0 81 31.5 145.5t85.5 104t122 60.5t144 21q201 0 366 -86v152q0 69 -29 118.5t-79 75.5t-105 37t-120 11q-188 0 -318 -76l-22 82q148 82 352 82q84 0 155.5 -18t131.5 -55.5t94.5 -103.5t34.5 -155l-2 -451v-15q0 -92 13 -119q22 -47 112 -36l4 -67 q-123 -20 -166.5 23.5t-38.5 164.5q-55 -100 -167.5 -147t-248.5 -47q-88 0 -167 34.5t-131 104.5t-52 160zM178 287q3 -73 42.5 -123.5t98.5 -73t130 -22.5q84 0 160.5 24t139 80t82.5 137v133q-173 93 -354 90q-121 0 -212 -65t-87 -180zM268 1311q51 88 131 108.5 t179 -37.5q60 -41 107.5 -34t88.5 73l53 -30q-46 -89 -118.5 -110t-167.5 36q-64 41 -118 33.5t-95 -72.5q-7 4 -29.5 16t-30.5 17z" />
<glyph unicode="&#xe4;" d="M82 283q0 81 31.5 145.5t85.5 104t122 60.5t144 21q201 0 366 -86v152q0 69 -29 118.5t-79 75.5t-105 37t-120 11q-188 0 -318 -76l-22 82q148 82 352 82q84 0 155.5 -18t131.5 -55.5t94.5 -103.5t34.5 -155l-2 -451v-15q0 -92 13 -119q22 -47 112 -36l4 -67 q-123 -20 -166.5 23.5t-38.5 164.5q-55 -100 -167.5 -147t-248.5 -47q-88 0 -167 34.5t-131 104.5t-52 160zM178 287q3 -73 42.5 -123.5t98.5 -73t130 -22.5q84 0 160.5 24t139 80t82.5 137v133q-173 93 -354 90q-121 0 -212 -65t-87 -180zM285 1370q0 31 19 49.5t50 18.5 q30 0 50 -19t20 -49q0 -26 -20.5 -44.5t-49.5 -18.5q-30 0 -49.5 18t-19.5 45zM674 1370q0 31 19 49.5t50 18.5q30 0 50 -19t20 -49q0 -26 -20.5 -44.5t-49.5 -18.5q-30 0 -49.5 18t-19.5 45z" />
<glyph unicode="&#xe5;" d="M82 283q0 81 31.5 145.5t85.5 104t122 60.5t144 21q201 0 366 -86v152q0 69 -29 118.5t-79 75.5t-105 37t-120 11q-188 0 -318 -76l-22 82q148 82 352 82q84 0 155.5 -18t131.5 -55.5t94.5 -103.5t34.5 -155l-2 -451v-15q0 -92 13 -119q22 -47 112 -36l4 -67 q-123 -20 -166.5 23.5t-38.5 164.5q-55 -100 -167.5 -147t-248.5 -47q-88 0 -167 34.5t-131 104.5t-52 160zM178 287q3 -73 42.5 -123.5t98.5 -73t130 -22.5q84 0 160.5 24t139 80t82.5 137v133q-173 93 -354 90q-121 0 -212 -65t-87 -180zM344 1337q0 56 31 97.5t77 60 t100 18.5t100 -18.5t77 -60t31 -97.5t-31 -97t-77 -59.5t-100 -19t-100 18t-77 60t-31 97.5zM414 1337q0 -44 28 -74t68 -37t80 0t68 37t28 74q0 54 -42.5 84.5t-93.5 30.5t-93.5 -30.5t-42.5 -84.5z" />
<glyph unicode="&#xe6;" horiz-adv-x="1746" d="M86 276q-4 151 97.5 246.5t246.5 95.5q116 0 200 -22.5t173 -71.5v150q0 68 -28.5 117.5t-77.5 76.5t-104.5 39.5t-119.5 12.5q-158 0 -291 -78l-22 78q152 86 327 86q73 0 135 -15t114 -46.5t85 -85.5t41 -126q47 131 148 202t243 71q115 0 200 -40t130 -109t63 -162.5 t-1 -200.5h-754q-5 -200 94.5 -316t286.5 -117q137 -8 307 72l20 -76q-192 -80 -327 -80q-289 6 -400 230q-82 -123 -189.5 -174t-262.5 -51q-138 0 -236 79t-98 215zM182 281q0 -106 72 -161.5t184 -60.5q130 0 233 58.5t156 177.5q-21 67 -24 147q-158 93 -338 93 q-120 0 -203.5 -68.5t-79.5 -185.5zM893 569h670q17 161 -68.5 259t-247.5 98q-156 0 -246 -96t-108 -261z" />
<glyph unicode="&#xe7;" horiz-adv-x="1161" d="M100 498q0 107 35 197.5t94 151.5t136 101t160 53.5t167.5 3t157.5 -45t131 -97.5t86 -147h-96q-36 82 -109 134t-158 66.5t-175 -5.5t-163 -70t-120 -139.5t-47 -202.5q0 -88 27.5 -162t74 -124.5t107.5 -84t127 -46t134 -4.5t127 35t108 78t75 119h98 q-47 -146 -159.5 -227t-258.5 -94l-24 -92q97 0 150.5 -61t25.5 -154q-23 -76 -97.5 -111.5t-158 -24.5t-141.5 58l4 80q38 -38 105.5 -55t130 0.5t79.5 70.5q14 41 0 73.5t-45.5 49t-68.5 23.5t-72 3l35 140q-93 4 -178.5 39.5t-154 98t-109 159t-40.5 213.5z" />
<glyph unicode="&#xe8;" horiz-adv-x="1144" d="M102 528q12 223 148.5 351.5t351.5 128.5q242 -2 359.5 -138t76.5 -381h-837q0 -206 117.5 -311t320.5 -110q181 3 342 75l20 -84q-178 -79 -360 -79q-167 0 -290.5 62.5t-190 187.5t-58.5 298zM203 573h753q11 113 -33.5 194t-128.5 120t-196 39q-166 0 -272 -94 t-123 -259zM414 1434v8l82 39l163 -252v-6h-84z" />
<glyph unicode="&#xe9;" horiz-adv-x="1144" d="M102 528q12 223 148.5 351.5t351.5 128.5q242 -2 359.5 -138t76.5 -381h-837q0 -206 117.5 -311t320.5 -110q181 3 342 75l20 -84q-178 -79 -360 -79q-167 0 -290.5 62.5t-190 187.5t-58.5 298zM203 573h753q11 113 -33.5 194t-128.5 120t-196 39q-166 0 -272 -94 t-123 -259zM543 1212v5l162 249l79 -36v-11l-159 -207h-82z" />
<glyph unicode="&#xea;" horiz-adv-x="1144" d="M102 528q12 223 148.5 351.5t351.5 128.5q242 -2 359.5 -138t76.5 -381h-837q0 -206 117.5 -311t320.5 -110q181 3 342 75l20 -84q-178 -79 -360 -79q-167 0 -290.5 62.5t-190 187.5t-58.5 298zM203 573h753q11 113 -33.5 194t-128.5 120t-196 39q-166 0 -272 -94 t-123 -259zM307 1206v8l260 236h92l259 -238v-6h-99l-205 185l-208 -185h-99z" />
<glyph unicode="&#xeb;" horiz-adv-x="1144" d="M102 528q12 223 148.5 351.5t351.5 128.5q242 -2 359.5 -138t76.5 -381h-837q0 -206 117.5 -311t320.5 -110q181 3 342 75l20 -84q-178 -79 -360 -79q-167 0 -290.5 62.5t-190 187.5t-58.5 298zM203 573h753q11 113 -33.5 194t-128.5 120t-196 39q-166 0 -272 -94 t-123 -259zM340 1372q0 29 18 45.5t48 16.5q27 0 45 -17t18 -45q0 -25 -18.5 -42t-44.5 -17q-29 0 -47.5 17t-18.5 42zM756 1372q0 29 17 45.5t46 16.5q27 0 46.5 -17t19.5 -45q0 -24 -19.5 -41.5t-46.5 -17.5q-29 0 -46 17t-17 42z" />
<glyph unicode="&#xec;" horiz-adv-x="442" d="M33 1427v11l82 39l170 -258v-7h-86zM172 0v983h98v-983h-98z" />
<glyph unicode="&#xed;" horiz-adv-x="442" d="M166 1204v6l168 258l82 -41v-8l-164 -215h-86zM172 0v983h98v-983h-98z" />
<glyph unicode="&#xee;" horiz-adv-x="442" d="M-57 1184v10l237 264h84l236 -266v-8h-90l-187 207l-190 -207h-90zM172 0v983h98v-983h-98z" />
<glyph unicode="&#xef;" horiz-adv-x="442" d="M-8 1370q0 31 19 49.5t50 18.5q30 0 50 -19t20 -49q0 -26 -20.5 -44.5t-49.5 -18.5q-30 0 -49.5 18t-19.5 45zM172 0v983h98v-983h-98zM305 1370q0 31 19.5 49.5t50.5 18.5q30 0 49.5 -19t19.5 -49q0 -26 -20 -44.5t-49 -18.5q-30 0 -50 18t-20 45z" />
<glyph unicode="&#xf0;" horiz-adv-x="1226" d="M102 477q0 115 41.5 208t112 152t158.5 91.5t184 34.5q112 0 218 -44t165 -131q-63 180 -256 394l-139 -99l-33 45l135 99q-118 125 -229 192v4h106q98 -59 193 -157l129 100l31 -47l-119 -92q147 -160 235 -359t88 -391q0 -18 -2 -22q-4 -116 -50.5 -209t-118.5 -150 t-163 -87t-185.5 -28.5t-184.5 35t-160 93t-113 155t-43 213.5zM201 477q0 -98 35.5 -177.5t93 -128.5t131.5 -75.5t150.5 -26.5t150.5 26.5t131.5 75.5t93 128.5t35.5 177.5q0 97 -35.5 175.5t-93 127t-131.5 74.5t-150.5 26t-150.5 -26t-131.5 -74.5t-93 -127 t-35.5 -175.5z" />
<glyph unicode="&#xf1;" horiz-adv-x="1204" d="M68 991q119 18 169 -14t50 -146q66 96 155 138.5t209 40.5q184 0 291 -114t107 -296v-600h-99v600q0 146 -88.5 232t-232.5 86q-148 0 -242 -91t-94 -243v-584h-98v731q0 121 -22.5 153.5t-102.5 20.5zM326 1315q52 90 133 111t182 -37q60 -41 109 -34.5t90 72.5 q5 -3 24.5 -14t28.5 -16q-44 -90 -119 -112t-170 36q-66 43 -121 35.5t-96 -74.5q-8 5 -30.5 16.5t-30.5 16.5z" />
<glyph unicode="&#xf2;" horiz-adv-x="1236" d="M100 496q0 123 44.5 223t117.5 161.5t166 94.5t190.5 33t190.5 -33t166 -94.5t117.5 -161.5t44.5 -223t-44.5 -222.5t-117.5 -160.5t-166 -94.5t-190.5 -33.5t-190.5 33.5t-166 94.5t-117.5 160.5t-44.5 222.5zM199 496q0 -101 36 -183t95 -132.5t134.5 -78t154 -27.5 t154 27t134.5 77.5t95 132.5t36 184t-36 184.5t-95 133t-134.5 78t-154 27.5t-154 -27.5t-134.5 -78t-95 -133t-36 -184.5zM465 1423v11l80 36l164 -247v-6h-84z" />
<glyph unicode="&#xf3;" horiz-adv-x="1236" d="M100 496q0 123 44.5 223t117.5 161.5t166 94.5t190.5 33t190.5 -33t166 -94.5t117.5 -161.5t44.5 -223t-44.5 -222.5t-117.5 -160.5t-166 -94.5t-190.5 -33.5t-190.5 33.5t-166 94.5t-117.5 160.5t-44.5 222.5zM199 496q0 -101 36 -183t95 -132.5t134.5 -78t154 -27.5 t154 27t134.5 77.5t95 132.5t36 184t-36 184.5t-95 133t-134.5 78t-154 27.5t-154 -27.5t-134.5 -78t-95 -133t-36 -184.5zM563 1212v5l162 249l80 -36v-11l-160 -207h-82z" />
<glyph unicode="&#xf4;" horiz-adv-x="1236" d="M100 496q0 123 44.5 223t117.5 161.5t166 94.5t190.5 33t190.5 -33t166 -94.5t117.5 -161.5t44.5 -223t-44.5 -222.5t-117.5 -160.5t-166 -94.5t-190.5 -33.5t-190.5 33.5t-166 94.5t-117.5 160.5t-44.5 222.5zM199 496q0 -101 36 -183t95 -132.5t134.5 -78t154 -27.5 t154 27t134.5 77.5t95 132.5t36 184t-36 184.5t-95 133t-134.5 78t-154 27.5t-154 -27.5t-134.5 -78t-95 -133t-36 -184.5zM326 1198v8l256 244h92l256 -246v-6h-99l-202 193l-205 -193h-98z" />
<glyph unicode="&#xf5;" horiz-adv-x="1236" d="M100 496q0 123 44.5 223t117.5 161.5t166 94.5t190.5 33t190.5 -33t166 -94.5t117.5 -161.5t44.5 -223t-44.5 -222.5t-117.5 -160.5t-166 -94.5t-190.5 -33.5t-190.5 33.5t-166 94.5t-117.5 160.5t-44.5 222.5zM199 496q0 -101 36 -183t95 -132.5t134.5 -78t154 -27.5 t154 27t134.5 77.5t95 132.5t36 184t-36 184.5t-95 133t-134.5 78t-154 27.5t-154 -27.5t-134.5 -78t-95 -133t-36 -184.5zM354 1303q52 90 133.5 110.5t182.5 -37.5q60 -41 108.5 -34t89.5 73q6 -4 25.5 -15t28.5 -16q-44 -90 -119 -111.5t-170 36.5q-66 43 -121 35.5 t-96 -74.5q-8 5 -31 16.5t-31 16.5z" />
<glyph unicode="&#xf6;" horiz-adv-x="1236" d="M100 496q0 123 44.5 223t117.5 161.5t166 94.5t190.5 33t190.5 -33t166 -94.5t117.5 -161.5t44.5 -223t-44.5 -222.5t-117.5 -160.5t-166 -94.5t-190.5 -33.5t-190.5 33.5t-166 94.5t-117.5 160.5t-44.5 222.5zM199 496q0 -101 36 -183t95 -132.5t134.5 -78t154 -27.5 t154 27t134.5 77.5t95 132.5t36 184t-36 184.5t-95 133t-134.5 78t-154 27.5t-154 -27.5t-134.5 -78t-95 -133t-36 -184.5zM344 1358q0 29 18 45t48 16q27 0 45 -16.5t18 -44.5q0 -25 -18.5 -42.5t-44.5 -17.5q-29 0 -47.5 17.5t-18.5 42.5zM760 1358q0 29 17 45t46 16 q28 0 47 -16.5t19 -44.5q0 -25 -20 -42.5t-46 -17.5q-29 0 -46 17t-17 43z" />
<glyph unicode="&#xf7;" horiz-adv-x="1067" d="M158 690v88h751v-88h-751zM463 428q0 29 18.5 46.5t48.5 17.5t49 -17.5t19 -46.5q0 -26 -19.5 -43.5t-48.5 -17.5t-48 17.5t-19 43.5zM463 1038q0 29 18.5 46.5t48.5 17.5t49 -17.5t19 -46.5q0 -26 -19.5 -43.5t-48.5 -17.5t-48 17.5t-19 43.5z" />
<glyph unicode="&#xf8;" horiz-adv-x="1234" d="M100 498q0 125 46 226t121.5 162t169.5 93t194.5 28.5t191.5 -40.5l76 147h86l-90 -178q111 -64 176.5 -175t65.5 -263q0 -103 -31.5 -190t-84.5 -147t-124 -101.5t-149.5 -58.5t-161 -13t-158.5 30l-68 -133h-84l82 164q-118 64 -188 177t-70 272zM195 498 q0 -129 57 -221t154 -142l380 752q-74 29 -156 32t-158.5 -23.5t-139 -76.5t-100 -133.5t-37.5 -187.5zM467 100q62 -21 128 -23.5t130 11.5t121 48t100 83t68.5 121t25.5 158q0 124 -51.5 213t-140.5 139z" />
<glyph unicode="&#xf9;" horiz-adv-x="1183" d="M156 387v600h98v-600q0 -146 88.5 -231.5t232.5 -85.5q147 -1 230.5 88.5t83.5 244.5v584h98v-735q0 -121 22.5 -153.5t102.5 -20.5l2 -82q-118 -18 -166.5 14t-48.5 146q-67 -100 -146.5 -139.5t-199.5 -39.5q-184 0 -290.5 114t-106.5 296zM408 1419v8l81 39l166 -254 v-6h-84z" />
<glyph unicode="&#xfa;" horiz-adv-x="1183" d="M156 387v600h98v-600q0 -146 88.5 -231.5t232.5 -85.5q147 -1 230.5 88.5t83.5 244.5v584h98v-735q0 -121 22.5 -153.5t102.5 -20.5l2 -82q-118 -18 -166.5 14t-48.5 146q-67 -100 -146.5 -139.5t-199.5 -39.5q-184 0 -290.5 114t-106.5 296zM496 1206v6l166 252l81 -39 v-8l-161 -211h-86z" />
<glyph unicode="&#xfb;" horiz-adv-x="1183" d="M156 387v600h98v-600q0 -146 88.5 -231.5t232.5 -85.5q147 -1 230.5 88.5t83.5 244.5v584h98v-735q0 -121 22.5 -153.5t102.5 -20.5l2 -82q-118 -18 -166.5 14t-48.5 146q-67 -100 -146.5 -139.5t-199.5 -39.5q-184 0 -290.5 114t-106.5 296zM274 1221v10l269 242h96 l266 -244v-8h-102l-211 192l-215 -192h-103z" />
<glyph unicode="&#xfc;" horiz-adv-x="1183" d="M156 387v600h98v-600q0 -146 88.5 -231.5t232.5 -85.5q147 -1 230.5 88.5t83.5 244.5v584h98v-735q0 -121 22.5 -153.5t102.5 -20.5l2 -82q-118 -18 -166.5 14t-48.5 146q-67 -100 -146.5 -139.5t-199.5 -39.5q-184 0 -290.5 114t-106.5 296zM305 1343q0 31 18.5 48.5 t49.5 17.5q30 0 48.5 -18t18.5 -48q0 -25 -19 -43t-48 -18q-30 0 -49 18t-19 43zM743 1343q0 31 18.5 48.5t49.5 17.5q28 0 48 -18t20 -48q0 -24 -20.5 -42.5t-47.5 -18.5q-30 0 -49 18t-19 43z" />
<glyph unicode="&#xfd;" horiz-adv-x="1110" d="M53 977v8h105l405 -883h2l375 883h100v-8l-444 -1034q-8 -19 -24 -58q-26 -65 -41 -99t-45 -92.5t-54.5 -88t-64 -64t-79 -44t-93.5 -5.5t-115 31l20 88q59 -27 108 -27.5t82.5 16t64 56t49.5 78t42 96.5l68 158zM475 1204v6l176 269l86 -41v-11l-172 -223h-90z" />
<glyph unicode="&#xfe;" horiz-adv-x="1191" d="M166 -506v1979h98v-584q89 64 187.5 94t189 26.5t173 -39.5t143.5 -99t97 -158.5t36 -210.5t-36 -210t-97 -158.5t-143.5 -100t-173 -40.5t-189 26t-187.5 94v-619h-98zM262 213q74 -62 159 -95.5t164.5 -37t153.5 23t129 78t88 134.5t33 186t-33 186t-88 134.5t-129 78 t-153.5 23t-164.5 -37t-159 -95.5v-578z" />
<glyph unicode="&#xff;" horiz-adv-x="1110" d="M53 977v8h105l405 -883h2l375 883h100v-8l-444 -1034q-8 -19 -24 -58q-26 -65 -41 -99t-45 -92.5t-54.5 -88t-64 -64t-79 -44t-93.5 -5.5t-115 31l20 88q59 -27 108 -27.5t82.5 16t64 56t49.5 78t42 96.5l68 158zM268 1348q0 30 19.5 48.5t50.5 18.5q30 0 50 -18.5 t20 -48.5q0 -26 -20.5 -45t-49.5 -19q-30 0 -50 18.5t-20 45.5zM717 1348q0 31 19 49t50 18q30 0 50 -18.5t20 -48.5q0 -26 -20.5 -45t-49.5 -19q-30 0 -49.5 18.5t-19.5 45.5z" />
<glyph unicode="&#x152;" horiz-adv-x="1900" d="M113 715q0 342 200 541.5t535 199.5q110 0 227 -24h694v-89h-628v-555h600v-92h-600v-606h637v-90h-711q-129 -29 -229 -29q-329 0 -527 203t-198 541zM213 715q0 -192 75.5 -340.5t219.5 -232t336 -83.5q101 0 203 27v1262q-97 20 -197 20q-295 0 -466 -179t-171 -474z " />
<glyph unicode="&#x153;" horiz-adv-x="1900" d="M102 492q0 -110 32.5 -201.5t86.5 -152.5t125 -100.5t147.5 -51t154.5 1.5t145.5 50.5t121 104t80.5 154.5q41 -149 153.5 -230.5t278.5 -86.5q171 -3 326 75l-22 86q-154 -74 -304 -71q-188 6 -285 115.5t-91 308.5h745q38 233 -61 372.5t-326 139.5q-158 0 -263.5 -83 t-148.5 -237q-52 160 -164 237.5t-262 77.5q-90 0 -173 -32.5t-149.5 -94t-106.5 -160.5t-40 -222zM203 492q0 102 32 184.5t84.5 133t119.5 78t137.5 27.5t137.5 -27.5t119.5 -78t84.5 -133t32 -184.5t-32 -184.5t-84.5 -133t-119.5 -78t-137.5 -27.5t-137.5 27.5 t-119.5 78t-84.5 133t-32 184.5zM1051 569q18 166 106.5 260.5t243.5 94.5q163 0 247.5 -92.5t65.5 -262.5h-663z" />
<glyph unicode="&#x178;" horiz-adv-x="1277" d="M57 1421v13h113l467 -727h4l467 727h111v-15l-529 -823v-596h-102v596zM344 1624q0 31 19.5 49.5t50.5 18.5q30 0 49.5 -19t19.5 -49q0 -26 -20 -44.5t-49 -18.5q-30 0 -50 18t-20 45zM793 1624q0 31 19 49.5t50 18.5q30 0 50 -19t20 -49q0 -26 -20.5 -44.5t-49.5 -18.5 q-30 0 -49.5 18t-19.5 45z" />
<glyph unicode="&#x2c6;" horiz-adv-x="1011" d="M168 1176v10l281 254h100l278 -256v-8h-106l-221 200l-226 -200h-106z" />
<glyph unicode="&#x2dc;" horiz-adv-x="860" d="M131 1327q55 95 140.5 117t191.5 -39q64 -44 116.5 -36.5t94.5 77.5q14 -6 33.5 -18.5t23.5 -14.5q-49 -95 -127.5 -117.5t-179.5 37.5q-67 45 -125.5 37.5t-103.5 -78.5q-8 5 -32 17.5t-32 17.5z" />
<glyph unicode="&#x2000;" horiz-adv-x="932" />
<glyph unicode="&#x2001;" horiz-adv-x="1864" />
<glyph unicode="&#x2002;" horiz-adv-x="932" />
<glyph unicode="&#x2003;" horiz-adv-x="1864" />
<glyph unicode="&#x2004;" horiz-adv-x="621" />
<glyph unicode="&#x2005;" horiz-adv-x="466" />
<glyph unicode="&#x2006;" horiz-adv-x="310" />
<glyph unicode="&#x2007;" horiz-adv-x="310" />
<glyph unicode="&#x2008;" horiz-adv-x="233" />
<glyph unicode="&#x2009;" horiz-adv-x="372" />
<glyph unicode="&#x200a;" horiz-adv-x="103" />
<glyph unicode="&#x2010;" horiz-adv-x="931" d="M145 639v88h641v-88h-641z" />
<glyph unicode="&#x2011;" horiz-adv-x="931" d="M145 639v88h641v-88h-641z" />
<glyph unicode="&#x2012;" horiz-adv-x="931" d="M145 639v88h641v-88h-641z" />
<glyph unicode="&#x2013;" horiz-adv-x="1112" d="M145 639v88h822v-88h-822z" />
<glyph unicode="&#x2014;" horiz-adv-x="1292" d="M145 639v88h1002v-88h-1002z" />
<glyph unicode="&#x2018;" horiz-adv-x="425" d="M145 1229q-3 14 0 22q4 26 11 43l45 142h67l-39 -133q50 -13 50 -62q0 -29 -19 -46t-49 -17q-25 0 -43.5 14t-22.5 37z" />
<glyph unicode="&#x2019;" horiz-adv-x="428" d="M154 1374q0 29 18.5 45.5t48.5 16.5q25 0 43.5 -13.5t22.5 -36.5q3 -15 0 -24q-3 -20 -11 -43l-43 -139h-69l39 131q-49 13 -49 63z" />
<glyph unicode="&#x201a;" horiz-adv-x="419" d="M143 43q0 29 19 45t49 16q24 0 42.5 -13t22.5 -36v-24q-3 -7 -5 -21.5t-5 -21.5q-19 -51 -47 -150h-69l43 144q-50 10 -50 61z" />
<glyph unicode="&#x201c;" horiz-adv-x="706" d="M150 1225v24q3 7 6 20.5t6 20.5l43 142h67l-36 -132q47 -14 47 -63q0 -29 -18 -45t-48 -16q-25 0 -44 13t-23 36zM422 1225v24q3 7 5 20.5t5 20.5l45 142h68l-39 -132q49 -13 49 -63q0 -29 -19 -45t-49 -16q-25 0 -43 13t-22 36z" />
<glyph unicode="&#x201d;" horiz-adv-x="702" d="M154 1374q0 29 18.5 45.5t48.5 16.5q25 0 43.5 -13.5t22.5 -36.5q3 -15 0 -24q-3 -20 -11 -43l-43 -139h-69l39 131q-49 13 -49 63zM428 1374q0 29 19 45.5t49 16.5q24 0 42.5 -13.5t22.5 -36.5v-24q-3 -8 -5 -21.5t-5 -21.5l-45 -139h-68l39 131q-49 13 -49 63z" />
<glyph unicode="&#x201e;" horiz-adv-x="702" d="M143 43q0 29 18 45t48 16q25 0 44 -13t23 -36v-24q-3 -7 -6 -20.5t-6 -20.5q-9 -27 -25.5 -78t-21.5 -68h-67l40 138q-21 5 -34 21t-13 40zM426 43q0 29 19 45t49 16q25 0 43 -13t22 -36q3 -15 0 -24q-4 -27 -10 -41q-33 -97 -47 -146h-70l43 138q-49 9 -49 61z" />
<glyph unicode="&#x2022;" horiz-adv-x="735" d="M199 731q0 71 49 114.5t119 43.5t120 -43.5t50 -114.5q0 -67 -51 -113.5t-119 -46.5t-118 46.5t-50 113.5z" />
<glyph unicode="&#x2026;" horiz-adv-x="1179" d="M145 55q0 30 21 49t51 19q31 0 52.5 -19t21.5 -49q0 -29 -21.5 -48t-52.5 -19q-30 0 -51 19t-21 48zM512 55q0 30 21 49t51 19q31 0 52 -19t21 -49q0 -29 -21 -48t-52 -19q-30 0 -51 19t-21 48zM889 55q0 30 20.5 49t51.5 19t52 -19t21 -49q0 -29 -21 -48t-52 -19 t-51.5 19t-20.5 48z" />
<glyph unicode="&#x202f;" horiz-adv-x="372" />
<glyph unicode="&#x2039;" horiz-adv-x="602" d="M123 709l260 436l80 -25l-219 -411l219 -408l-80 -27z" />
<glyph unicode="&#x203a;" horiz-adv-x="602" d="M139 301l219 408l-219 411l80 25l260 -436l-260 -435z" />
<glyph unicode="&#x205f;" horiz-adv-x="466" />
<glyph unicode="&#x20ac;" horiz-adv-x="1366" d="M104 522v80h162q-15 114 0 232h-162v79h177q57 245 247 391t449 146q116 0 235 -39l-32 -82q-96 35 -201 35q-225 0 -383.5 -120.5t-212.5 -330.5h594l-29 -79h-586q-15 -118 0 -232h510l-26 -80h-465q53 -206 211.5 -329t382.5 -123q134 0 252 53l33 -84 q-129 -57 -287 -57q-264 0 -452 147t-242 393h-175z" />
<glyph unicode="&#x2122;" horiz-adv-x="1554" d="M145 1370v66h508v-66h-215v-506h-73v506h-220zM766 864v572h43l262 -324l260 324h45v-572h-76v414l-225 -279h-10l-223 279v-414h-76z" />
<glyph unicode="&#x25fc;" horiz-adv-x="983" d="M0 0v983h983v-983h-983z" />
</font>
</defs>
</svg>
