<?xml version="1.0" standalone="no"?>
<!DOCTYPE svg PUBLIC "-//W3C//DTD SVG 1.1//EN" "http://www.w3.org/Graphics/SVG/1.1/DTD/svg11.dtd" >
<svg xmlns="http://www.w3.org/2000/svg" xmlns:xlink="http://www.w3.org/1999/xlink" version="1.1">
<metadata></metadata>
<defs>
<font id="intro_cond_capsbold" horiz-adv-x="1265" >
<font-face units-per-em="2048" ascent="2019" descent="-29" />
<missing-glyph horiz-adv-x="405" />
<glyph horiz-adv-x="0" />
<glyph horiz-adv-x="682" />
<glyph unicode=" "  horiz-adv-x="405" />
<glyph unicode="&#x09;" horiz-adv-x="405" />
<glyph unicode="&#xa0;" horiz-adv-x="405" />
<glyph unicode="!" horiz-adv-x="530" d="M106 1436h316l-16 -1053h-277zM111 127q0 71 44 113.5t111 42.5q69 0 113.5 -42t44.5 -114q0 -70 -45 -113t-113 -43q-67 0 -111 42.5t-44 113.5z" />
<glyph unicode="&#x22;" horiz-adv-x="729" d="M109 983v451h223l-35 -451h-188zM418 983v451h221l-33 -451h-188z" />
<glyph unicode="#" horiz-adv-x="1234" d="M63 367v200h193l31 252h-168v203h196l52 410h237l-47 -410h225l54 410h237l-49 -410h139v-203h-166l-28 -252h139v-200h-166l-43 -367h-250l45 367h-221l-41 -367h-252l47 367h-164zM492 561h239l31 266h-240z" />
<glyph unicode="$" horiz-adv-x="1122" d="M68 424h278q1 -80 43 -124t105 -52v362q-68 11 -120.5 25.5t-109.5 44.5t-94.5 71.5t-61.5 108t-24 152.5q0 107 32 190t90 135t129.5 82t158.5 41v139h143v-143q77 -11 143 -40.5t120.5 -79.5t86 -128t31.5 -176h-270q-4 67 -35 107.5t-76 46.5v-342q75 -11 130 -26 t113.5 -45.5t95.5 -74.5t61 -115.5t24 -164.5q0 -88 -35 -167.5t-93.5 -137t-135.5 -94.5t-160 -46v-141h-143v139q-115 12 -209.5 65.5t-155.5 154.5t-61 233zM371 1018q0 -71 30.5 -103.5t92.5 -52.5v324q-54 -6 -88.5 -49.5t-34.5 -118.5zM637 248q58 6 96.5 52t38.5 118 q0 44 -9.5 74.5t-32 50t-41 29t-52.5 22.5v-346z" />
<glyph unicode="%" horiz-adv-x="1607" d="M57 1098q0 160 85.5 258t224.5 98q138 0 222.5 -98t84.5 -258t-84.5 -258.5t-222.5 -98.5q-139 0 -224.5 98.5t-85.5 258.5zM266 1098q0 -72 28 -116t73 -44q44 0 72 44t28 116t-28 117t-72 45t-72.5 -45t-28.5 -117zM377 0l598 1432h242l-601 -1432h-239zM934 336 q0 160 85 258t224 98q138 0 222.5 -98t84.5 -258t-84.5 -258t-222.5 -98q-139 0 -224 98t-85 258zM1143 336q0 -72 28 -116t72 -44t72 44t28 116t-28 117t-72 45t-72 -45t-28 -117z" />
<glyph unicode="&#x26;" horiz-adv-x="1120" d="M78 440q0 126 46 223t136 150q-108 83 -108 250q0 178 108.5 284.5t282.5 106.5q166 0 273.5 -97t103.5 -274h-242q0 54 -37 87.5t-90 33.5q-56 0 -94.5 -35.5t-38.5 -105.5q0 -87 45.5 -121.5t130.5 -34.5v-233h-55q-83 -4 -131 -65.5t-48 -157.5q0 -95 48.5 -156.5 t132.5 -61.5q80 0 129.5 61t50.5 169v455h348v-232h-113v-221q0 -228 -109.5 -356.5t-305.5 -128.5q-117 0 -209 38t-147 103t-82 146.5t-25 172.5z" />
<glyph unicode="'" horiz-adv-x="425" d="M109 987v447h225l-33 -447h-192z" />
<glyph unicode="(" horiz-adv-x="641" d="M66 537q-2 168 24.5 331t81 310.5t146.5 264t210 175.5l84 -172q-93 -62 -155.5 -208t-87.5 -311.5t-25 -348.5q0 -296 69.5 -539t198.5 -330l-84 -172q-115 58 -204.5 167t-144 246t-83 285.5t-30.5 301.5z" />
<glyph unicode=")" horiz-adv-x="641" d="M29 -291q123 81 192 303.5t74 479.5q3 204 -23.5 391.5t-89.5 341.5t-153 221l84 172q112 -57 201.5 -167.5t144.5 -248t84.5 -286.5t31.5 -298q2 -166 -25 -329t-82 -309.5t-146.5 -263.5t-208.5 -179z" />
<glyph unicode="*" horiz-adv-x="778" d="M80 1151l57 197l166 -76l-16 203h205l-19 -203l162 78l61 -195l-170 -55l125 -168l-166 -129l-96 178l-94 -178l-164 131l123 164z" />
<glyph unicode="+" horiz-adv-x="841" d="M88 633v235h223v262h219v-262h226v-235h-226v-264h-219v264h-223z" />
<glyph unicode="," horiz-adv-x="485" d="M84 123q0 72 44.5 115t113.5 43t113 -42t44 -118q0 -39 -10 -66l-6 -26q-29 -99 -74 -234h-157l43 176q-111 41 -111 152z" />
<glyph unicode="-" horiz-adv-x="823" d="M102 559v246h619v-246h-619z" />
<glyph unicode="." horiz-adv-x="481" d="M82 125q0 71 45.5 115.5t112.5 44.5q68 0 113.5 -44t45.5 -116q0 -70 -45.5 -113t-113.5 -43t-113 43t-45 113z" />
<glyph unicode="/" horiz-adv-x="935" d="M45 2l588 1432h258l-588 -1432h-258z" />
<glyph unicode="0" horiz-adv-x="1112" d="M100 465v500q0 113 36 206.5t98 154.5t145 94.5t178 33.5q195 0 325 -132t130 -357v-500q0 -226 -129.5 -355.5t-325.5 -129.5q-95 0 -178 32.5t-145 93t-98 153t-36 206.5zM373 547q0 -80 2 -115q4 -91 52.5 -137.5t129.5 -46.5q77 0 126.5 47t53.5 137q4 70 4 115v334 q0 38 -4 116q-4 94 -53.5 141.5t-126.5 47.5q-81 0 -129.5 -47t-52.5 -142q-2 -39 -2 -116v-334z" />
<glyph unicode="1" horiz-adv-x="794" d="M76 0v236h196v958h-172v240h451v-1198h203v-236h-678z" />
<glyph unicode="2" horiz-adv-x="946" d="M68 0v66l424 714q29 52 43 78t29.5 72.5t15.5 85.5q0 176 -123 176q-131 0 -131 -180h-244q-1 210 101 326t286 116q99 0 178.5 -45t125.5 -123.5t62 -177t-11 -215t-95 -227.5l-244 -400h373v-266h-790z" />
<glyph unicode="3" horiz-adv-x="1009" d="M68 420h254q5 -80 51 -128t119 -48q72 0 116.5 59.5t44.5 157.5q-2 66 -23.5 114.5t-55 75t-78 39t-90 11.5t-93.5 -11v43l203 457h-401v244h776v-43l-244 -502q137 -28 209 -147.5t72 -278.5q0 -217 -118.5 -350t-313.5 -133q-189 0 -306 121t-122 319z" />
<glyph unicode="4" horiz-adv-x="1054" d="M37 285v133l512 1016h303v-902h129v-247h-129v-285h-262v285h-553zM358 522h250v273l15 297h-2z" />
<glyph unicode="5" horiz-adv-x="1005" d="M86 410h252q5 -73 49 -117.5t115 -44.5q72 0 114.5 58t42.5 155q0 66 -17 115t-44.5 77.5t-68 44.5t-80.5 20.5t-89 2.5q-64 -4 -243 -27v740h753v-242h-516v-258q55 12 115 12q80 -2 147 -17.5t127.5 -51t102 -89.5t66 -136.5t24.5 -188.5q0 -217 -118 -350t-310 -133 q-184 0 -299 118t-123 312z" />
<glyph unicode="6" horiz-adv-x="1050" d="M68 461q0 159 79 307l345 666h315l-275 -543q39 29 119 29q155 0 249.5 -126.5t94.5 -332.5q0 -217 -128 -349t-337 -132t-335.5 132t-126.5 349zM350 461q0 -100 49 -160.5t131 -60.5q80 0 128.5 60.5t48.5 160.5q0 104 -48.5 166.5t-128.5 62.5q-82 0 -131 -62.5 t-49 -166.5z" />
<glyph unicode="7" horiz-adv-x="942" d="M53 1167v267h881v-43l-508 -1391h-291l410 1167h-492z" />
<glyph unicode="8" horiz-adv-x="1079" d="M76 440q0 118 44 215t128 158q-91 101 -94 254q-5 161 99.5 274t287.5 113q123 0 212.5 -53t132 -138t42.5 -190q0 -157 -97 -262q163 -119 173 -367q3 -126 -48.5 -230t-160 -169t-254.5 -65q-110 0 -200 37t-147 101t-87.5 146.5t-30.5 175.5zM360 449 q0 -95 48.5 -155.5t132.5 -60.5t132 62.5t48 159.5q0 101 -48 163t-132 62t-132.5 -65t-48.5 -166zM406 1059q0 -69 36.5 -113.5t98.5 -44.5q61 0 97 45t36 115q0 67 -36 110t-97 43q-64 0 -99.5 -43.5t-35.5 -111.5z" />
<glyph unicode="9" horiz-adv-x="1046" d="M51 977q0 215 128 346t337 131t336 -131t127 -346q0 -87 -21 -160t-63 -155l-344 -662h-313l286 545q-36 -27 -98 -27q-170 0 -272.5 125t-102.5 334zM338 977q0 -104 49 -166.5t129 -62.5q86 0 131 59t45 170q0 98 -48 157.5t-128 59.5t-129 -59.5t-49 -157.5z" />
<glyph unicode=":" horiz-adv-x="520" d="M102 125q0 71 45.5 115.5t112.5 44.5q68 0 114 -44t46 -116q0 -70 -46 -113t-114 -43t-113 43t-45 113zM102 762q0 69 45 114.5t113 45.5q69 0 114.5 -42.5t45.5 -117.5q0 -70 -46 -113t-114 -43t-113 43t-45 113z" />
<glyph unicode=";" horiz-adv-x="526" d="M104 123q0 72 45 115t113 43q69 0 113.5 -42.5t44.5 -117.5q0 -15 -3 -30t-7.5 -32t-6.5 -30l-71 -230h-158l43 172q-51 19 -82 57t-31 95zM104 762q0 71 45.5 114.5t112.5 43.5q69 0 114.5 -43.5t45.5 -114.5q0 -70 -45.5 -112t-114.5 -42q-66 0 -112 41.5t-46 112.5z " />
<glyph unicode="&#x3c;" horiz-adv-x="958" d="M70 600v211l761 373v-252l-450 -227l450 -230v-252z" />
<glyph unicode="=" horiz-adv-x="956" d="M113 387v238h731v-238h-731zM113 776v238h731v-238h-731z" />
<glyph unicode="&#x3e;" horiz-adv-x="958" d="M127 223v252l451 230l-451 227v252l762 -373v-211z" />
<glyph unicode="?" horiz-adv-x="905" d="M57 1026q-2 109 27.5 193t83 134.5t121.5 75.5t149 25q191 0 296.5 -109t105.5 -307q0 -66 -19 -121t-55 -118q-15 -24 -60 -90.5t-66 -103t-40.5 -99t-17.5 -123.5h-269q-8 122 47 233q11 23 47.5 78t69 105t59.5 121t27 133q-5 60 -37.5 93.5t-87.5 33.5q-57 0 -98 -41 t-45 -113h-238zM291 127q0 75 44.5 116.5t113.5 41.5q68 0 111.5 -43.5t43.5 -114.5t-44 -113.5t-111 -42.5q-68 0 -113 43t-45 113z" />
<glyph unicode="@" horiz-adv-x="1650" d="M80 496q16 193 85.5 355t177.5 273t251 172.5t303 61.5q228 0 387 -108t229.5 -301t49.5 -447q-14 -158 -58.5 -277.5t-128.5 -193.5t-198 -74q-46 0 -82 14.5t-56.5 36t-33 51t-17 55.5t-4.5 54q-38 -89 -106 -138.5t-148 -49.5q-97 0 -170.5 42.5t-114.5 115t-57 164.5 t-6 194q13 169 89.5 290t191 178t251.5 54q89 0 184 -42t161 -120l-41 -504q-5 -57 -5 -63q-3 -125 37 -125q129 0 152 338q21 204 -32.5 359t-180 242t-309.5 87q-172 0 -312.5 -90t-225.5 -248t-101 -356q-24 -300 95.5 -484.5t324.5 -189.5q139 -3 286 69l-14 -165 q-196 -84 -377 -45q-240 51 -373 270.5t-104 544.5zM653 496q-5 -72 7.5 -131.5t48 -98t90.5 -33.5q70 0 111.5 68.5t54.5 171.5l4 31l18 235q-54 43 -125 43q-83 0 -141 -77t-68 -209z" />
<glyph unicode="A" d="M8 0v41l553 1407h146l550 -1407v-41h-301l-88 238h-471l-86 -238h-303zM489 496h285l-63 172l-78 268l-82 -270z" />
<glyph unicode="B" horiz-adv-x="1167" d="M135 0v1434h488q191 0 307.5 -117t116.5 -309q0 -79 -35 -151.5t-94 -113.5q89 -40 134.5 -123t45.5 -196q0 -191 -118.5 -307.5t-311.5 -116.5h-533zM424 266h248q63 0 101 43t38 115q0 78 -40.5 124t-106.5 46h-240v-328zM424 844h197q62 0 101.5 44.5t39.5 115.5 q0 76 -38 121.5t-103 45.5h-197v-327z" />
<glyph unicode="C" horiz-adv-x="1320" d="M70 715q0 219 78 386.5t219 259t325 91.5q101 0 193 -30.5t170.5 -91t132.5 -160.5t72 -228h-275q-29 121 -101.5 177.5t-191.5 56.5q-150 0 -241 -126t-91 -335q0 -204 91.5 -329.5t240.5 -125.5q109 0 187 65.5t106 192.5h279q-14 -113 -53.5 -204.5t-95 -152.5 t-126 -102t-144.5 -59t-153 -18q-279 0 -450.5 201t-171.5 532z" />
<glyph unicode="D" horiz-adv-x="1269" d="M135 0v1434h459q179 0 316.5 -88.5t212.5 -250.5t75 -374q0 -324 -166.5 -522.5t-437.5 -198.5h-459zM424 276h166q144 0 231.5 121.5t87.5 321.5q0 197 -87.5 317.5t-231.5 120.5h-166v-881z" />
<glyph unicode="E" horiz-adv-x="991" d="M135 0v1434h754v-269h-463v-291h430v-268h-430v-327h477v-279h-768z" />
<glyph unicode="F" horiz-adv-x="950" d="M135 0v1434h754v-269h-465v-387h414v-268h-414v-510h-289z" />
<glyph unicode="G" horiz-adv-x="1335" d="M70 717q0 330 171.5 532.5t452.5 202.5q74 0 143.5 -16.5t136.5 -53.5t120.5 -91t94.5 -133.5t60 -176.5h-286q-41 103 -105.5 149t-163.5 46q-149 0 -240.5 -126.5t-91.5 -332.5q0 -205 91.5 -331t240.5 -126q58 0 105 13t88 43.5t68.5 85.5t39.5 133h-295v258h572 q3 -54 3 -105q0 -175 -38 -297q-66 -206 -212 -307.5t-331 -101.5q-281 0 -452.5 202.5t-171.5 532.5z" />
<glyph unicode="H" horiz-adv-x="1271" d="M135 0v1434h289v-547h422v547h291v-1434h-291v610h-422v-610h-289z" />
<glyph unicode="I" horiz-adv-x="765" d="M74 0v244h164v952h-150v238h590v-238h-150v-952h162v-244h-616z" />
<glyph unicode="J" horiz-adv-x="1091" d="M41 475v174h270v-168q0 -105 50.5 -167t136.5 -62q81 0 129.5 60.5t48.5 168.5v688h-197v265h488v-959q0 -228 -128 -361.5t-339 -133.5q-206 0 -332.5 136.5t-126.5 358.5z" />
<glyph unicode="K" horiz-adv-x="1232" d="M133 0v1434h289v-592h27h31.5t29.5 0.5t31.5 2.5t27.5 4.5t26.5 7.5t20.5 11q28 18 49.5 63.5t31 86t29.5 138.5q1 6 1.5 8.5t1.5 7t2 8.5q12 56 33 101t55.5 83.5t82.5 58.5q47 19 112 25q13 1 27 2q55 0 120 -18v-209q-14 2 -27 2q-50 -1 -80 -25q-38 -30 -55 -110 q-33 -138 -67 -229t-84 -152q47 -86 169 -313.5t191 -350.5v-45h-327l-287 590q-44 -15 -172 -15v-575h-289z" />
<glyph unicode="L" horiz-adv-x="919" d="M135 0v1434h291v-1160h473v-274h-764z" />
<glyph unicode="M" horiz-adv-x="1449" d="M135 0v1450h105l487 -694l485 694h103v-1450h-289v737l-283 -411h-34l-283 411v-737h-291z" />
<glyph unicode="N" horiz-adv-x="1306" d="M133 0v1444h90l660 -809v799h291v-1444h-87l-665 801v-791h-289z" />
<glyph unicode="O" horiz-adv-x="1386" d="M70 717q0 332 171.5 534.5t452.5 202.5q184 0 325.5 -91.5t219.5 -259.5t78 -386t-78 -386t-219.5 -259.5t-325.5 -91.5q-281 0 -452.5 202.5t-171.5 534.5zM360 717q0 -209 91 -335t243 -126t243 126t91 335q0 206 -91 332.5t-243 126.5t-243 -126.5t-91 -332.5z" />
<glyph unicode="P" horiz-adv-x="1142" d="M135 2v1432h490q213 0 345 -144t132 -377q0 -226 -129.5 -365.5t-335.5 -139.5h-211v-406h-291zM420 670h217q83 0 134.5 69t51.5 183q0 110 -52 177.5t-134 67.5h-217v-497z" />
<glyph unicode="Q" horiz-adv-x="1388" d="M70 717q0 332 171.5 534.5t452.5 202.5q184 0 325.5 -91.5t219.5 -259.5t78 -386q0 -251 -105 -438l134 -283v-14h-265l-47 98q-141 -100 -340 -100q-281 0 -452.5 202.5t-171.5 534.5zM360 717q0 -209 91 -335t243 -126t243 126t91 335q0 206 -91 332.5t-243 126.5 t-243 -126.5t-91 -332.5z" />
<glyph unicode="R" horiz-adv-x="1198" d="M135 0v1434h508q204 0 329.5 -134.5t125.5 -355.5q0 -140 -56 -246t-159 -163l270 -517v-18h-305l-232 475h-190v-475h-291zM422 727h219q79 0 127.5 61.5t48.5 161.5q0 98 -48 157.5t-128 59.5h-219v-440z" />
<glyph unicode="S" horiz-adv-x="1122" d="M70 434h276q4 -92 67.5 -139t151.5 -47q43 0 76 6.5t65.5 24t50 53.5t17.5 90q0 34 -9 61.5t-20.5 45t-35 31.5t-39 21t-47.5 13t-45.5 7.5t-47.5 4.5q-217 20 -330.5 130t-113.5 280q0 201 128 319.5t339 118.5q72 0 137.5 -13.5t126.5 -46t105.5 -81t71 -123.5 t26.5 -168h-270q-6 83 -61.5 125.5t-133.5 42.5q-76 0 -130 -44.5t-54 -123.5q0 -87 52.5 -123.5t156.5 -50.5q481 -55 481 -426q0 -98 -27.5 -175.5t-74 -126.5t-111 -81.5t-133.5 -45.5t-148 -13q-96 0 -183.5 27.5t-158.5 81.5t-113 143t-42 202z" />
<glyph unicode="T" horiz-adv-x="964" d="M31 1167v267h903v-267h-309v-1167h-283v1167h-311z" />
<glyph unicode="U" horiz-adv-x="1228" d="M125 477v957h291v-951q0 -105 55 -168t147 -63q91 0 145 63t54 168v951h287v-957q0 -223 -134 -359t-354 -136q-222 0 -356.5 136t-134.5 359z" />
<glyph unicode="V" horiz-adv-x="1241" d="M10 1393v41h303l228 -666l77 -274l74 272l240 668h301v-41l-541 -1407h-145z" />
<glyph unicode="W" horiz-adv-x="1759" d="M29 1389v45h301l143 -494q58 -257 78 -420h2l233 879h187l244 -879h2q25 221 73 420l138 494h301v-45l-416 -1403h-195l-237 807h-4l-232 -807h-203z" />
<glyph unicode="X" horiz-adv-x="1181" d="M14 0v43l404 715l-363 631v45h314l143 -281q41 -84 80 -190h2q49 133 78 192l143 279h309v-45l-358 -631l401 -715v-43h-311l-178 330q-58 111 -86 198h-2q-34 -100 -86 -194l-176 -334h-314z" />
<glyph unicode="Y" horiz-adv-x="1153" d="M18 1389v45h312l139 -306q56 -125 106 -280h7q43 152 108 291l137 295h308v-45l-412 -816v-573h-291v573z" />
<glyph unicode="Z" horiz-adv-x="1056" d="M37 0v43l541 1122h-494v269h905v-45l-528 -1115h534v-274h-958z" />
<glyph unicode="[" horiz-adv-x="602" d="M129 -391v1968h406v-231h-154v-1481h154v-256h-406z" />
<glyph unicode="\" horiz-adv-x="935" d="M45 1434h258l588 -1432h-258z" />
<glyph unicode="]" horiz-adv-x="602" d="M68 -135h155v1481h-155v231h405v-1968h-405v256z" />
<glyph unicode="^" horiz-adv-x="1001" d="M80 823l323 625h195l326 -625h-236l-188 381l-185 -381h-235z" />
<glyph unicode="_" horiz-adv-x="1071" d="M100 -25h871v-245h-871v245z" />
<glyph unicode="`" horiz-adv-x="610" d="M115 1358v24l247 97l138 -320v-26h-219z" />
<glyph unicode="a" d="M8 0v41l553 1407h146l550 -1407v-41h-301l-88 238h-471l-86 -238h-303zM489 496h285l-63 172l-78 268l-82 -270z" />
<glyph unicode="b" horiz-adv-x="1167" d="M135 0v1434h488q191 0 307.5 -117t116.5 -309q0 -79 -35 -151.5t-94 -113.5q89 -40 134.5 -123t45.5 -196q0 -191 -118.5 -307.5t-311.5 -116.5h-533zM424 266h248q63 0 101 43t38 115q0 78 -40.5 124t-106.5 46h-240v-328zM424 844h197q62 0 101.5 44.5t39.5 115.5 q0 76 -38 121.5t-103 45.5h-197v-327z" />
<glyph unicode="c" horiz-adv-x="1320" d="M70 715q0 219 78 386.5t219 259t325 91.5q101 0 193 -30.5t170.5 -91t132.5 -160.5t72 -228h-275q-29 121 -101.5 177.5t-191.5 56.5q-150 0 -241 -126t-91 -335q0 -204 91.5 -329.5t240.5 -125.5q109 0 187 65.5t106 192.5h279q-14 -113 -53.5 -204.5t-95 -152.5 t-126 -102t-144.5 -59t-153 -18q-279 0 -450.5 201t-171.5 532z" />
<glyph unicode="d" horiz-adv-x="1269" d="M135 0v1434h459q179 0 316.5 -88.5t212.5 -250.5t75 -374q0 -324 -166.5 -522.5t-437.5 -198.5h-459zM424 276h166q144 0 231.5 121.5t87.5 321.5q0 197 -87.5 317.5t-231.5 120.5h-166v-881z" />
<glyph unicode="e" horiz-adv-x="991" d="M135 0v1434h754v-269h-463v-291h430v-268h-430v-327h477v-279h-768z" />
<glyph unicode="f" horiz-adv-x="950" d="M135 0v1434h754v-269h-465v-387h414v-268h-414v-510h-289z" />
<glyph unicode="g" horiz-adv-x="1335" d="M70 717q0 330 171.5 532.5t452.5 202.5q74 0 143.5 -16.5t136.5 -53.5t120.5 -91t94.5 -133.5t60 -176.5h-286q-41 103 -105.5 149t-163.5 46q-149 0 -240.5 -126.5t-91.5 -332.5q0 -205 91.5 -331t240.5 -126q58 0 105 13t88 43.5t68.5 85.5t39.5 133h-295v258h572 q3 -54 3 -105q0 -175 -38 -297q-66 -206 -212 -307.5t-331 -101.5q-281 0 -452.5 202.5t-171.5 532.5z" />
<glyph unicode="h" horiz-adv-x="1271" d="M135 0v1434h289v-547h422v547h291v-1434h-291v610h-422v-610h-289z" />
<glyph unicode="i" horiz-adv-x="765" d="M74 0v244h164v952h-150v238h590v-238h-150v-952h162v-244h-616z" />
<glyph unicode="j" horiz-adv-x="1091" d="M41 475v174h270v-168q0 -105 50.5 -167t136.5 -62q81 0 129.5 60.5t48.5 168.5v688h-197v265h488v-959q0 -228 -128 -361.5t-339 -133.5q-206 0 -332.5 136.5t-126.5 358.5z" />
<glyph unicode="k" horiz-adv-x="1232" d="M133 0v1434h289v-592h27h31.5t29.5 0.5t31.5 2.5t27.5 4.5t26.5 7.5t20.5 11q28 18 49.5 63.5t31 86t29.5 138.5q1 6 1.5 8.5t1.5 7t2 8.5q12 56 33 101t55.5 83.5t82.5 58.5q47 19 112 25q13 1 27 2q55 0 120 -18v-209q-14 2 -27 2q-50 -1 -80 -25q-38 -30 -55 -110 q-33 -138 -67 -229t-84 -152q47 -86 169 -313.5t191 -350.5v-45h-327l-287 590q-44 -15 -172 -15v-575h-289z" />
<glyph unicode="l" horiz-adv-x="919" d="M135 0v1434h291v-1160h473v-274h-764z" />
<glyph unicode="m" horiz-adv-x="1449" d="M135 0v1450h105l487 -694l485 694h103v-1450h-289v737l-283 -411h-34l-283 411v-737h-291z" />
<glyph unicode="n" horiz-adv-x="1306" d="M133 0v1444h90l660 -809v799h291v-1444h-87l-665 801v-791h-289z" />
<glyph unicode="o" horiz-adv-x="1386" d="M70 717q0 332 171.5 534.5t452.5 202.5q184 0 325.5 -91.5t219.5 -259.5t78 -386t-78 -386t-219.5 -259.5t-325.5 -91.5q-281 0 -452.5 202.5t-171.5 534.5zM360 717q0 -209 91 -335t243 -126t243 126t91 335q0 206 -91 332.5t-243 126.5t-243 -126.5t-91 -332.5z" />
<glyph unicode="p" horiz-adv-x="1142" d="M135 2v1432h490q213 0 345 -144t132 -377q0 -226 -129.5 -365.5t-335.5 -139.5h-211v-406h-291zM420 670h217q83 0 134.5 69t51.5 183q0 110 -52 177.5t-134 67.5h-217v-497z" />
<glyph unicode="q" horiz-adv-x="1419" d="M70 717q0 332 171.5 534.5t452.5 202.5q184 0 325.5 -91.5t219.5 -259.5t78 -386q0 -251 -105 -438l134 -283v-14h-265l-47 98q-141 -100 -340 -100q-281 0 -452.5 202.5t-171.5 534.5zM360 717q0 -209 91 -335t243 -126t243 126t91 335q0 206 -91 332.5t-243 126.5 t-243 -126.5t-91 -332.5z" />
<glyph unicode="r" horiz-adv-x="1198" d="M135 0v1434h508q204 0 329.5 -134.5t125.5 -355.5q0 -140 -56 -246t-159 -163l270 -517v-18h-305l-232 475h-190v-475h-291zM422 727h219q79 0 127.5 61.5t48.5 161.5q0 98 -48 157.5t-128 59.5h-219v-440z" />
<glyph unicode="s" horiz-adv-x="1122" d="M70 434h276q4 -92 67.5 -139t151.5 -47q43 0 76 6.5t65.5 24t50 53.5t17.5 90q0 34 -9 61.5t-20.5 45t-35 31.5t-39 21t-47.5 13t-45.5 7.5t-47.5 4.5q-217 20 -330.5 130t-113.5 280q0 201 128 319.5t339 118.5q72 0 137.5 -13.5t126.5 -46t105.5 -81t71 -123.5 t26.5 -168h-270q-6 83 -61.5 125.5t-133.5 42.5q-76 0 -130 -44.5t-54 -123.5q0 -87 52.5 -123.5t156.5 -50.5q481 -55 481 -426q0 -98 -27.5 -175.5t-74 -126.5t-111 -81.5t-133.5 -45.5t-148 -13q-96 0 -183.5 27.5t-158.5 81.5t-113 143t-42 202z" />
<glyph unicode="t" horiz-adv-x="964" d="M31 1167v267h903v-267h-309v-1167h-283v1167h-311z" />
<glyph unicode="u" horiz-adv-x="1228" d="M125 477v957h291v-951q0 -105 55 -168t147 -63q91 0 145 63t54 168v951h287v-957q0 -223 -134 -359t-354 -136q-222 0 -356.5 136t-134.5 359z" />
<glyph unicode="v" horiz-adv-x="1241" d="M10 1393v41h303l228 -666l77 -274l74 272l240 668h301v-41l-541 -1407h-145z" />
<glyph unicode="w" horiz-adv-x="1759" d="M29 1389v45h301l143 -494q58 -257 78 -420h2l233 879h187l244 -879h2q25 221 73 420l138 494h301v-45l-416 -1403h-195l-237 807h-4l-232 -807h-203z" />
<glyph unicode="x" horiz-adv-x="1181" d="M14 0v43l404 715l-363 631v45h314l143 -281q41 -84 80 -190h2q49 133 78 192l143 279h309v-45l-358 -631l401 -715v-43h-311l-178 330q-58 111 -86 198h-2q-34 -100 -86 -194l-176 -334h-314z" />
<glyph unicode="y" horiz-adv-x="1153" d="M18 1389v45h312l139 -306q56 -125 106 -280h7q43 152 108 291l137 295h308v-45l-412 -816v-573h-291v573z" />
<glyph unicode="z" horiz-adv-x="1056" d="M37 0v43l541 1122h-494v269h905v-45l-528 -1115h534v-274h-958z" />
<glyph unicode="{" horiz-adv-x="593" d="M57 526v211q97 7 97 172q0 46 -1.5 126t-2 123.5t2.5 109t10.5 102.5t23.5 82t39.5 70t60.5 45t86 26q47 6 145 6v-204q-52 0 -81 -22.5t-29 -88.5v-360q0 -102 -38.5 -180t-109.5 -113q72 -28 110 -99t38 -163v-389q0 -78 14 -110t61 -32q21 0 35 2v-229q-60 0 -88.5 1 t-75.5 6.5t-69.5 17.5t-52 34.5t-43 56t-23.5 84t-10 117.5q0 70 -1 208t-1 208q0 42 -7.5 80t-31 70t-58.5 32z" />
<glyph unicode="|" horiz-adv-x="503" d="M129 -178v1630h246v-1630h-246z" />
<glyph unicode="}" horiz-adv-x="593" d="M76 -160q14 -2 35 -2q36 0 56.5 21.5t20.5 81.5v428q0 95 36 164.5t108 97.5q-68 29 -106 98t-38 156v358q0 88 -26.5 120t-85.5 32v204q74 0 112.5 -2.5t95 -18t84.5 -46t50 -90.5t22 -148q0 -37 -2 -130.5t-2 -153t4.5 -124t16.5 -91.5q23 -55 80 -58v-211 q-37 0 -59.5 -29.5t-30 -67t-7.5 -85.5q0 -45 1 -110t2 -107.5t0.5 -98.5t-3.5 -93t-9 -82t-16.5 -74.5t-27 -60t-38.5 -49.5t-53 -33t-69 -19q-47 -6 -151 -6v229z" />
<glyph unicode="~" horiz-adv-x="1136" d="M98 633q31 129 116 201.5t200 68.5q71 -3 168 -57l61 -33q68 -35 78 -39q106 -44 149 98q41 -18 97.5 -48t81.5 -42q-92 -286 -299 -268q-76 6 -236 84q-11 5 -32 16t-37 18t-31 11q-51 11 -88.5 -11.5t-65.5 -90.5z" />
<glyph unicode="&#xa1;" horiz-adv-x="512" d="M98 846q0 70 45 112.5t113 42.5q65 0 111.5 -44t46.5 -111t-45.5 -111.5t-112.5 -44.5q-69 0 -113.5 42.5t-44.5 113.5zM100 -463l19 1036h274l23 -1036h-316z" />
<glyph unicode="&#xa2;" horiz-adv-x="1021" d="M78 496q0 135 46.5 243t122.5 171.5t173 89.5t198 6l46 151h112l-55 -186q191 -103 223 -344q-42 0 -126 -1t-126 -1q-17 62 -51 96l-127 -492q60 -11 109 27.5t71 126.5q44 0 128 -1t128 -1q-19 -140 -97 -241.5t-189 -141t-228 -10.5l-43 -152h-119l54 187 q-250 136 -250 473zM346 496q0 -132 68 -217l125 483q-81 6 -137 -67.5t-56 -198.5z" />
<glyph unicode="&#xa3;" horiz-adv-x="1163" d="M74 623v192h116q-13 141 8.5 251.5t67.5 182.5t116.5 119t151 66.5t175.5 19.5q154 0 329 -96l-86 -219q-107 71 -252 71q-122 0 -185.5 -99t-45.5 -296h367v-192h-344q8 -44 8 -95q0 -158 -66 -282q33 28 92 28q44 0 128.5 -21.5t117.5 -21.5q51 0 75 39t17 148h226 q15 -100 8 -152q-8 -129 -75 -205.5t-196 -76.5q-47 0 -171.5 29.5t-184.5 29.5q-71 0 -111 -45h-276v27q81 84 113 174t34 209q2 68 -18 215h-139z" />
<glyph unicode="&#xa4;" horiz-adv-x="970" d="M96 401l94 101q-28 62 -28 188q0 113 33 189l-93 98l142 141l96 -96q71 47 149 47q77 0 148 -47l96 96l141 -141l-96 -98q33 -82 33 -189q0 -102 -37 -190l94 -99l-141 -139l-96 96q-71 -47 -150 -47q-78 0 -149 47l-94 -96zM360 690q0 -73 35.5 -120.5t89.5 -47.5 q53 0 90 43t37 125q0 77 -37 123.5t-90 46.5q-54 0 -89.5 -44.5t-35.5 -125.5z" />
<glyph unicode="&#xa5;" horiz-adv-x="1101" d="M53 1417v17h309l144 -400l49 -182l49 180l137 402h308v-15l-304 -737h177v-168h-228v-102h228v-168h-228v-244h-286v244h-228v168h228v102h-228v168h174z" />
<glyph unicode="&#xa6;" horiz-adv-x="499" d="M127 -43v668h246v-668h-246zM127 793v659h246v-659h-246z" />
<glyph unicode="&#xa7;" horiz-adv-x="1124" d="M86 76q45 0 132 1t132 1q4 -78 70.5 -122t140.5 -36q49 0 92.5 14t76 49.5t32.5 86.5q0 35 -10.5 62t-26 43t-40 26.5t-44.5 15t-47 8.5l-66 6q-83 0 -157 20.5t-135 60.5t-97.5 107.5t-38.5 155.5q0 169 125 261q-125 86 -125 251q0 93 37 167.5t100 120.5t142.5 70.5 t167.5 24.5q63 0 125 -13.5t121 -43t103.5 -72.5t71.5 -107t27 -140h-260q-4 75 -55 110t-127 35q-31 0 -60 -7t-57 -22.5t-44.5 -45.5t-16.5 -72q0 -54 34.5 -84t88 -37.5t123 -16.5t136 -19.5t131.5 -48.5t105 -102q45 -71 45 -196q0 -153 -108 -256q108 -83 108 -262 q0 -77 -29.5 -141.5t-77 -106.5t-110.5 -72t-127 -43.5t-129 -15.5q-73 0 -141 13.5t-131 43.5t-109 74t-73 109.5t-25 144.5zM356 604q1 -76 52 -114t155 -52l80 -10q39 -3 59 -10q82 58 82 160q0 37 -13 63.5t-35 44.5t-62.5 31t-84.5 21t-112 16l-35 6q-86 -53 -86 -156z " />
<glyph unicode="&#xa8;" horiz-adv-x="1064" d="M127 1311q0 66 43.5 106.5t108.5 40.5q63 0 107 -39t44 -108q0 -67 -44 -107.5t-107 -40.5t-107.5 40.5t-44.5 107.5zM596 1311q0 66 42.5 106.5t106.5 40.5q63 0 107.5 -40t44.5 -107q0 -66 -44.5 -107t-107.5 -41t-106 40.5t-43 107.5z" />
<glyph unicode="&#xa9;" horiz-adv-x="1370" d="M80 717q0 317 168 511.5t440 194.5q269 0 435.5 -194.5t166.5 -511.5q0 -319 -166.5 -514t-435.5 -195q-272 0 -440 195t-168 514zM270 717q0 -239 116.5 -387t301.5 -148q184 0 298 148t114 387t-113.5 386.5t-298.5 147.5t-301.5 -148t-116.5 -386zM397 715 q0 154 83 248t218 94q103 0 180 -64.5t93 -185.5l-158 -2q-23 94 -117 94q-57 0 -94 -51.5t-37 -132.5q0 -87 37.5 -143t97.5 -56q37 0 70.5 31t44.5 84l158 -2q-16 -133 -91.5 -200t-181.5 -67q-136 0 -219.5 98.5t-83.5 254.5z" />
<glyph unicode="&#xaa;" horiz-adv-x="776" d="M53 932q0 111 67 174t181 63q78 0 145 -47v60q0 32 -14.5 55.5t-37.5 35t-45 16.5t-42 5q-99 0 -166 -41l-30 146q105 55 229 55q63 0 116 -14t98.5 -45.5t71 -89.5t25.5 -138v-194q0 -11 -0.5 -33.5t-0.5 -32.5t1.5 -26t5 -23t9 -15t15.5 -10.5t24 -1.5v-116 q-20 -5 -37.5 -8t-45 -5.5t-49 3t-41.5 17t-31.5 37t-11.5 62.5q-23 -57 -83.5 -85.5t-122.5 -28.5q-105 0 -167.5 60.5t-62.5 164.5zM88 391v189h610v-189h-610zM248 944q0 -35 21.5 -57.5t56.5 -22.5q48 0 83 36t35 89q-47 41 -110 41q-39 -5 -62.5 -28t-23.5 -58z" />
<glyph unicode="&#xab;" horiz-adv-x="905" d="M68 709l268 499l135 -65l-168 -434l168 -428l-135 -68zM416 709l268 499l135 -65l-168 -434l168 -428l-135 -68z" />
<glyph unicode="&#xac;" horiz-adv-x="1005" d="M104 565v246h781v-559h-217v313h-564z" />
<glyph unicode="&#xad;" horiz-adv-x="823" d="M102 559v246h619v-246h-619z" />
<glyph unicode="&#xae;" horiz-adv-x="1370" d="M80 717q0 317 168 511.5t440 194.5q269 0 435.5 -194.5t166.5 -511.5q0 -319 -166.5 -514t-435.5 -195q-272 0 -440 195t-168 514zM270 717q0 -239 116.5 -387t301.5 -148q184 0 298 148t114 387t-113.5 386.5t-298.5 147.5t-301.5 -148t-116.5 -386zM473 387v666h254 q96 0 155.5 -59.5t59.5 -172.5q0 -67 -24.5 -120t-75.5 -72l112 -211v-31h-161l-105 217h-57v-217h-158zM631 741h74q77 0 77 82q0 37 -18.5 59.5t-52.5 22.5h-80v-164z" />
<glyph unicode="&#xaf;" horiz-adv-x="892" d="M160 1210v220h567v-220h-567z" />
<glyph unicode="&#xb0;" horiz-adv-x="770" d="M66 1114q0 151 90 243.5t219 100.5q62 4 120 -16.5t105.5 -62t76 -110.5t28.5 -155q0 -148 -92.5 -242t-217.5 -102q-62 -4 -120 16.5t-105 62t-75.5 110.5t-28.5 155zM262 1114q0 -70 33.5 -111.5t81.5 -46.5q51 -5 89 37.5t38 120.5q0 70 -33.5 111.5t-81.5 46.5 q-51 5 -89 -37.5t-38 -120.5z" />
<glyph unicode="&#xb1;" horiz-adv-x="892" d="M109 33v231h671v-231h-671zM113 631v233h225v266h213v-266h229v-233h-229v-262h-213v262h-225z" />
<glyph unicode="&#xb2;" horiz-adv-x="710" d="M90 655v47l283 445q30 44 40 93t-7 83.5t-60 34.5q-78 0 -78 -94h-170q-4 134 62 208t186 74q99 0 162 -47.5t80.5 -118t6 -148t-51.5 -140.5l-156 -252h227v-185h-524z" />
<glyph unicode="&#xb3;" horiz-adv-x="702" d="M72 922h180q-1 -43 24 -69t66 -26t65.5 31t24.5 82q0 41 -11 68.5t-31.5 39.5t-42.5 15.5t-50 1.5q-15 0 -51 -4v29l112 266h-256v176h506v-31l-149 -317q172 -36 172 -242q0 -136 -79 -219.5t-208 -83.5q-121 0 -194 76.5t-78 206.5z" />
<glyph unicode="&#xb4;" horiz-adv-x="550" d="M78 1133v26l137 320l248 -97v-24l-166 -225h-219z" />
<glyph unicode="&#xb5;" horiz-adv-x="1071" d="M129 -512v1501h258v-581q0 -91 39 -147t100 -56q160 0 160 250v534h258v-989h-225l-27 119q-13 -67 -56 -103t-101 -36q-105 0 -148 98v-590h-258z" />
<glyph unicode="&#xb6;" horiz-adv-x="1386" d="M57 817q-5 87 8 173.5t46.5 166.5t84.5 141t127.5 97.5t168.5 36.5h743v-1874h-270v1613h-232v-1613h-266v807q-93 2 -169 39.5t-126 100t-79.5 142t-35.5 170.5z" />
<glyph unicode="&#xb7;" horiz-adv-x="493" d="M88 735q0 71 45.5 114.5t112.5 43.5q69 0 114.5 -41.5t45.5 -116.5q0 -70 -46 -113.5t-114 -43.5q-69 0 -113.5 41t-44.5 116z" />
<glyph unicode="&#xb8;" horiz-adv-x="708" d="M145 -424l17 158q21 -21 88 -37q36 -9 57 -4q34 6 43 43q10 52 -33 78t-84 26l46 189h198l-26 -125q118 -18 127 -148q6 -99 -47.5 -162.5t-139.5 -76.5q-62 -10 -128.5 6.5t-117.5 52.5z" />
<glyph unicode="&#xb9;" horiz-adv-x="614" d="M94 655v174h123v531h-106v172h309v-703h125v-174h-451z" />
<glyph unicode="&#xba;" horiz-adv-x="784" d="M51 1081q0 169 95.5 272t254.5 103q155 0 251 -103t96 -272q0 -171 -95.5 -273.5t-251.5 -102.5q-160 0 -255 102t-95 274zM74 391v189h631v-189h-631zM264 1081q0 -84 37.5 -134t99.5 -50t99 50t37 134q0 85 -37 136t-99 51t-99.5 -51t-37.5 -136z" />
<glyph unicode="&#xbb;" horiz-adv-x="907" d="M86 281l168 428l-168 434l133 65l270 -499l-270 -496zM434 281l168 428l-168 434l133 65l271 -499l-271 -496z" />
<glyph unicode="&#xbc;" horiz-adv-x="1617" d="M76 596v158h119v514h-103v164h297v-678h119v-158h-432zM352 2l670 1432h197l-670 -1432h-197zM922 164v96l295 617h243v-541h99v-172h-99v-164h-190v164h-348zM1151 336h133v143l10 180h-2z" />
<glyph unicode="&#xbd;" horiz-adv-x="1619" d="M74 582v157h119v527h-103v166h297v-693h121v-157h-434zM350 2l670 1432h197l-670 -1432h-197zM1032 0v47l283 445q47 66 42 138t-69 72q-78 0 -78 -94h-170q-4 134 62 208.5t186 74.5q99 0 162 -48t80.5 -118.5t6 -148t-51.5 -140.5l-156 -252h227v-184h-524z" />
<glyph unicode="&#xbe;" horiz-adv-x="1695" d="M63 829h181q-1 -42 23.5 -68t66.5 -26q41 0 65.5 31t24.5 82q0 41 -11 68.5t-31.5 39.5t-42.5 15.5t-50 1.5q-15 0 -51 -4v28l112 267h-256v176h506v-31l-149 -317q172 -36 172 -242q0 -136 -79 -219.5t-208 -83.5q-121 0 -194.5 76.5t-78.5 205.5zM430 2l670 1432h196 l-669 -1432h-197zM999 164v96l295 617h244v-541h98v-172h-98v-164h-190v164h-349zM1229 336h133v143l10 180h-2z" />
<glyph unicode="&#xbf;" horiz-adv-x="892" d="M57 -49q0 49 11 95t33.5 90t42.5 76t53.5 80t50.5 75q70 110 67 239h271q1 -34 -2.5 -67t-8.5 -58t-17.5 -55.5t-20.5 -48.5t-26.5 -48t-26.5 -42.5t-30.5 -44.5t-29.5 -41q-65 -81 -82 -154q-15 -65 -2 -133q11 -51 37 -81t63 -30q19 0 52 11q107 43 110 149h240 q0 -202 -105.5 -315.5t-277.5 -118.5q-84 -4 -156 20t-127.5 74.5t-87 134.5t-31.5 193zM293 862q0 71 43.5 113.5t112.5 42.5q68 0 113.5 -43t45.5 -113t-45.5 -113.5t-113.5 -43.5t-112 43t-44 114z" />
<glyph unicode="&#xc0;" d="M8 0v41l553 1407h146l550 -1407v-41h-301l-88 238h-471l-86 -238h-303zM383 1786v24l250 97l135 -338v-27h-219zM489 496h285l-63 172l-78 268l-82 -270z" />
<glyph unicode="&#xc1;" d="M8 0v41l553 1407h146l550 -1407v-41h-301l-88 238h-471l-86 -238h-303zM489 496h285l-63 172l-78 268l-82 -270zM508 1542v27l135 342l250 -96v-25l-166 -248h-219z" />
<glyph unicode="&#xc2;" d="M8 0v41l553 1407h146l550 -1407v-41h-301l-88 238h-471l-86 -238h-303zM250 1530v29l250 294h270l250 -297v-26h-258l-127 151l-123 -151h-262zM489 496h285l-63 172l-78 268l-82 -270z" />
<glyph unicode="&#xc3;" d="M8 0v41l553 1407h146l550 -1407v-41h-301l-88 238h-471l-86 -238h-303zM293 1626q30 97 76.5 148t116.5 58t163 -42q66 -39 117.5 -32t64.5 65l144 -64q-23 -107 -83 -159t-126 -52q-15 0 -28 1t-27 3.5t-23.5 4t-24 7t-21 7.5t-23 9.5t-20.5 9t-23 11l-23 11.5 q-38 19 -68 3t-47 -63zM489 496h285l-63 172l-78 268l-82 -270z" />
<glyph unicode="&#xc4;" d="M8 0v41l553 1407h146l550 -1407v-41h-301l-88 238h-471l-86 -238h-303zM248 1706q0 66 43 106.5t106 40.5q65 0 108.5 -39t43.5 -108q0 -67 -44 -107t-108 -40q-62 0 -105.5 40t-43.5 107zM489 496h285l-63 172l-78 268l-82 -270zM715 1706q0 66 43 106.5t108 40.5 q63 0 106.5 -40t43.5 -107q0 -66 -43.5 -106.5t-106.5 -40.5q-64 0 -107.5 40t-43.5 107z" />
<glyph unicode="&#xc5;" d="M8 0v41l545 1370q-75 20 -120.5 86.5t-45.5 157.5q0 108 67.5 174.5t172.5 66.5q107 0 174 -66t67 -175q0 -84 -42 -149.5t-111 -90.5l542 -1374v-41h-301l-84 238h-479l-82 -238h-303zM487 496h293l-147 428zM543 1655q0 -44 22.5 -72.5t59.5 -28.5q41 0 64.5 28 t23.5 73q0 40 -24 65t-60 25t-61 -26t-25 -64z" />
<glyph unicode="&#xc6;" horiz-adv-x="1468" d="M8 0v45l570 1385h788v-244h-410v-322h379v-239h-379v-373h428v-252h-673v346h-289l-121 -346h-293zM510 596h201l10 571h-2z" />
<glyph unicode="&#xc7;" horiz-adv-x="1320" d="M70 715q0 219 78 386.5t219 259t325 91.5q101 0 193 -30.5t170.5 -91t132.5 -160.5t72 -228h-275q-29 121 -101.5 177.5t-191.5 56.5q-150 0 -241 -126t-91 -335q0 -204 91.5 -329.5t240.5 -125.5q109 0 187 65.5t106 192.5h279q-16 -121 -58 -216t-104 -157.5 t-135.5 -100t-159.5 -52.5l-21 -105q123 -15 129 -141q4 -97 -50.5 -164.5t-141.5 -75.5q-62 -6 -127.5 11t-114.5 53l17 158q3 -4 7.5 -7t10.5 -6t10.5 -5t13.5 -4.5t13 -3.5l14 -3.5t13 -3.5q32 -12 63.5 -1t38.5 44q6 29 -5 50t-32 30t-39 12.5t-35 3.5l33 154 q-244 32 -389 228t-145 499z" />
<glyph unicode="&#xc8;" horiz-adv-x="991" d="M135 0v1434h754v-269h-463v-291h430v-268h-430v-327h477v-279h-768zM274 1786v24l250 97l135 -320v-26h-219z" />
<glyph unicode="&#xc9;" horiz-adv-x="991" d="M135 0v1434h754v-269h-463v-291h430v-268h-430v-327h477v-279h-768zM393 1573v26l137 320l248 -96v-25l-166 -225h-219z" />
<glyph unicode="&#xca;" horiz-adv-x="991" d="M135 0v1434h754v-269h-463v-291h430v-268h-430v-327h477v-279h-768zM154 1563v26l239 299h260l238 -301v-24h-248l-121 155l-116 -155h-252z" />
<glyph unicode="&#xcb;" horiz-adv-x="991" d="M129 1706q0 66 43.5 106.5t108.5 40.5q63 0 107 -39t44 -108q0 -67 -44 -107t-107 -40t-107.5 40t-44.5 107zM135 0v1434h754v-269h-463v-291h430v-268h-430v-327h477v-279h-768zM598 1706q0 66 43 106.5t107 40.5q63 0 107 -40t44 -107q0 -66 -44 -106.5t-107 -40.5 q-64 0 -107 40t-43 107z" />
<glyph unicode="&#xcc;" horiz-adv-x="765" d="M74 0v244h164v952h-150v238h590v-238h-150v-952h162v-244h-616zM121 1776v24l248 96l137 -323v-27h-221z" />
<glyph unicode="&#xcd;" horiz-adv-x="765" d="M74 0v244h164v952h-150v238h590v-238h-150v-952h162v-244h-616zM248 1538v27l137 331l248 -96v-24l-166 -238h-219z" />
<glyph unicode="&#xce;" horiz-adv-x="763" d="M18 1573v29l240 294h260l238 -297v-26h-248l-121 156l-119 -156h-250zM74 0v244h164v952h-150v238h588v-238h-150v-952h164v-244h-616z" />
<glyph unicode="&#xcf;" horiz-adv-x="765" d="M20 1692q0 66 43.5 106.5t108.5 40.5q64 0 108 -39t44 -108q0 -67 -44.5 -107.5t-107.5 -40.5t-107.5 40.5t-44.5 107.5zM74 0v244h164v952h-150v238h590v-238h-150v-952h164v-244h-618zM449 1692q0 66 42.5 106.5t106.5 40.5q63 0 107.5 -40t44.5 -107q0 -66 -44.5 -107 t-107.5 -41t-106 40.5t-43 107.5z" />
<glyph unicode="&#xd0;" horiz-adv-x="1284" d="M27 586v239h123v609h458q179 0 316.5 -88.5t212.5 -250.5t75 -374q0 -324 -166.5 -522.5t-437.5 -198.5h-458v586h-123zM438 276h166q145 0 232.5 121.5t87.5 321.5q0 197 -88 317.5t-232 120.5h-166v-332h197v-239h-197v-310z" />
<glyph unicode="&#xd1;" horiz-adv-x="1306" d="M133 0v1444h90l660 -809v799h291v-1444h-87l-665 801v-791h-289zM272 1653q33 98 81 145t122 51q38 0 80 -14.5t71.5 -29.5t57.5 -23.5t48 4.5t32 53l135 -61q-18 -85 -67.5 -141t-120.5 -60q-36 -3 -75 10.5t-79 33.5t-61 26q-61 15 -88 -62z" />
<glyph unicode="&#xd2;" horiz-adv-x="1386" d="M70 717q0 332 171.5 534.5t452.5 202.5q184 0 325.5 -91.5t219.5 -259.5t78 -386t-78 -386t-219.5 -259.5t-325.5 -91.5q-281 0 -452.5 202.5t-171.5 534.5zM360 717q0 -209 91 -335t243 -126t243 126t91 335q0 206 -91 332.5t-243 126.5t-243 -126.5t-91 -332.5z M424 1810v25l260 94l150 -340v-22h-230z" />
<glyph unicode="&#xd3;" horiz-adv-x="1386" d="M70 717q0 332 171.5 534.5t452.5 202.5q184 0 325.5 -91.5t219.5 -259.5t78 -386t-78 -386t-219.5 -259.5t-325.5 -91.5q-281 0 -452.5 202.5t-171.5 534.5zM360 717q0 -209 91 -335t243 -126t243 126t91 335q0 206 -91 332.5t-243 126.5t-243 -126.5t-91 -332.5z M551 1563v26l147 357l258 -95v-24l-176 -264h-229z" />
<glyph unicode="&#xd4;" horiz-adv-x="1386" d="M70 717q0 332 171.5 534.5t452.5 202.5q184 0 325.5 -91.5t219.5 -259.5t78 -386t-78 -386t-219.5 -259.5t-325.5 -91.5q-281 0 -452.5 202.5t-171.5 534.5zM301 1563v28l252 303h270l250 -305v-26h-260l-125 159l-123 -159h-264zM360 717q0 -209 91 -335t243 -126 t243 126t91 335q0 206 -91 332.5t-243 126.5t-243 -126.5t-91 -332.5z" />
<glyph unicode="&#xd5;" horiz-adv-x="1386" d="M70 717q0 332 171.5 534.5t452.5 202.5q184 0 325.5 -91.5t219.5 -259.5t78 -386t-78 -386t-219.5 -259.5t-325.5 -91.5q-281 0 -452.5 202.5t-171.5 534.5zM332 1671q33 98 81 145.5t122 51.5q38 0 80 -14.5t71.5 -29.5t57 -23.5t47.5 4.5t32 53l135 -62 q-18 -85 -67.5 -141t-120.5 -60q-36 -3 -75 10.5t-79 33.5t-61 26q-61 15 -88 -61zM360 717q0 -209 91 -335t243 -126t243 126t91 335q0 206 -91 332.5t-243 126.5t-243 -126.5t-91 -332.5z" />
<glyph unicode="&#xd6;" horiz-adv-x="1386" d="M70 717q0 332 171.5 534.5t452.5 202.5q184 0 325.5 -91.5t219.5 -259.5t78 -386t-78 -386t-219.5 -259.5t-325.5 -91.5q-281 0 -452.5 202.5t-171.5 534.5zM313 1731q0 66 43.5 106.5t108.5 40.5q63 0 107 -39t44 -108q0 -67 -44 -107.5t-107 -40.5t-107.5 40.5 t-44.5 107.5zM360 717q0 -209 91 -335t243 -126t243 126t91 335q0 206 -91 332.5t-243 126.5t-243 -126.5t-91 -332.5zM782 1731q0 66 43.5 106.5t106.5 40.5q64 0 107.5 -40t43.5 -107q0 -66 -44 -107t-107 -41q-64 0 -107 40.5t-43 107.5z" />
<glyph unicode="&#xd7;" horiz-adv-x="829" d="M86 911l162 174l168 -200l166 196l161 -170l-165 -200l165 -201l-163 -172l-164 199l-164 -197l-164 172l164 199z" />
<glyph unicode="&#xd8;" horiz-adv-x="1382" d="M72 717q0 163 48.5 302t132.5 234.5t198 149t243 53.5q114 0 221 -49l68 141h272v-28l-131 -246q189 -202 189 -557q0 -132 -34 -250.5t-93 -207t-137.5 -153.5t-170 -98t-186.5 -33q-114 0 -203 45l-71 -143h-135q-1 0 -68 -0.5t-68 0.5v31l127 239q-202 208 -202 570z M362 659q9 -155 76 -249l342 733q-42 22 -86 22q-85 0 -159 -52t-122 -156t-51 -240v-58zM625 287q37 -21 71 -21q130 0 229 126.5t99 324.5q0 169 -66 291z" />
<glyph unicode="&#xd9;" horiz-adv-x="1228" d="M125 477v957h291v-871q0 -57 10.5 -109t32.5 -99t63 -75t96 -28q90 0 144.5 77t54.5 234v871h287v-957q0 -146 -70 -261t-180.5 -174.5t-237.5 -59.5q-96 0 -182.5 31t-156.5 90.5t-111 156t-41 217.5zM356 1792v25l250 96l127 -281q4 -8 8 -39v-26h-219z" />
<glyph unicode="&#xda;" horiz-adv-x="1228" d="M125 477v957h291v-871q0 -57 10.5 -109t32.5 -99t63 -75t96 -28q90 0 144.5 77t54.5 234v871h287v-957q0 -146 -70 -261t-180.5 -174.5t-237.5 -59.5q-96 0 -182.5 31t-156.5 90.5t-111 156t-41 217.5zM489 1565v26l138 320l247 -96v-25l-165 -225h-220z" />
<glyph unicode="&#xdb;" horiz-adv-x="1228" d="M125 477v957h291v-871q0 -57 10.5 -109t32.5 -99t63 -75t96 -28q90 0 144.5 77t54.5 234v871h287v-957q0 -146 -70 -261t-180.5 -174.5t-237.5 -59.5q-96 0 -182.5 31t-156.5 90.5t-111 156t-41 217.5zM225 1583v29l250 303h273l247 -305v-27h-258l-127 160l-123 -160 h-262z" />
<glyph unicode="&#xdc;" horiz-adv-x="1228" d="M125 477v957h291v-871q0 -57 10.5 -109t32.5 -99t63 -75t96 -28q90 0 144.5 77t54.5 234v871h287v-957q0 -146 -70 -261t-180.5 -174.5t-237.5 -59.5q-96 0 -182.5 31t-156.5 90.5t-111 156t-41 217.5zM236 1702q0 66 43 106.5t106 40.5q64 0 108 -39t44 -108 q0 -67 -44 -107.5t-108 -40.5q-62 0 -105.5 40.5t-43.5 107.5zM702 1702q0 66 43.5 106.5t108.5 40.5q63 0 106.5 -40t43.5 -107q0 -66 -43.5 -107t-106.5 -41q-64 0 -108 40.5t-44 107.5z" />
<glyph unicode="&#xdd;" horiz-adv-x="1153" d="M18 1389v45h312l139 -306q56 -125 106 -280h7q43 152 108 291l137 295h308v-45l-412 -816v-573h-291v573zM440 1556v27l135 344l250 -96v-25l-166 -250h-219z" />
<glyph unicode="&#xde;" horiz-adv-x="1144" d="M135 0v1434h291v-187h211q209 0 336 -144t127 -380q0 -228 -129 -370t-334 -142h-211v-211h-291zM422 473h215q86 0 136 70t50 188q0 116 -50 185t-136 69h-215v-512z" />
<glyph unicode="&#xdf;" horiz-adv-x="1114" d="M127 0v1012q0 109 28 191t70 128.5t100 75.5t108 38t104 9q233 0 454 -94v-21l-188 -495q111 -26 175 -129t64 -256q0 -213 -98 -343t-258 -130q-89 0 -168 32v226q44 -13 76 -13q74 0 119 62t45 166q0 120 -69.5 174.5t-176.5 34.5v53l160 461q-42 30 -107 30 q-74 0 -121 -54t-47 -165v-24.5t-0.5 -74.5t-1 -150.5t-0.5 -289.5v-454h-268z" />
<glyph unicode="&#xe0;" d="M8 0v41l553 1407h146l550 -1407v-41h-301l-88 238h-471l-86 -238h-303zM383 1786v24l250 97l135 -338v-27h-219zM489 496h285l-63 172l-78 268l-82 -270z" />
<glyph unicode="&#xe1;" d="M8 0v41l553 1407h146l550 -1407v-41h-301l-88 238h-471l-86 -238h-303zM489 496h285l-63 172l-78 268l-82 -270zM508 1542v27l135 342l250 -96v-25l-166 -248h-219z" />
<glyph unicode="&#xe2;" d="M8 0v41l553 1407h146l550 -1407v-41h-301l-88 238h-471l-86 -238h-303zM250 1530v29l250 294h270l250 -297v-26h-258l-127 151l-123 -151h-262zM489 496h285l-63 172l-78 268l-82 -270z" />
<glyph unicode="&#xe3;" d="M8 0v41l553 1407h146l550 -1407v-41h-301l-88 238h-471l-86 -238h-303zM293 1626q30 97 76.5 148t116.5 58t163 -42q66 -39 117.5 -32t64.5 65l144 -64q-23 -107 -83 -159t-126 -52q-15 0 -28 1t-27 3.5t-23.5 4t-24 7t-21 7.5t-23 9.5t-20.5 9t-23 11l-23 11.5 q-38 19 -68 3t-47 -63zM489 496h285l-63 172l-78 268l-82 -270z" />
<glyph unicode="&#xe4;" d="M8 0v41l553 1407h146l550 -1407v-41h-301l-88 238h-471l-86 -238h-303zM248 1706q0 66 43 106.5t106 40.5q65 0 108.5 -39t43.5 -108q0 -67 -44 -107t-108 -40q-62 0 -105.5 40t-43.5 107zM489 496h285l-63 172l-78 268l-82 -270zM715 1706q0 66 43 106.5t108 40.5 q63 0 106.5 -40t43.5 -107q0 -66 -43.5 -106.5t-106.5 -40.5q-64 0 -107.5 40t-43.5 107z" />
<glyph unicode="&#xe5;" d="M8 0v41l545 1370q-75 20 -120.5 86.5t-45.5 157.5q0 108 67.5 174.5t172.5 66.5q107 0 174 -66t67 -175q0 -84 -42 -149.5t-111 -90.5l542 -1374v-41h-301l-84 238h-479l-82 -238h-303zM487 496h293l-147 428zM543 1655q0 -44 22.5 -72.5t59.5 -28.5q41 0 64.5 28 t23.5 73q0 40 -24 65t-60 25t-61 -26t-25 -64z" />
<glyph unicode="&#xe6;" horiz-adv-x="1468" d="M8 0v45l570 1385h788v-244h-410v-322h379v-239h-379v-373h428v-252h-673v346h-289l-121 -346h-293zM510 596h201l10 571h-2z" />
<glyph unicode="&#xe7;" horiz-adv-x="1320" d="M70 715q0 219 78 386.5t219 259t325 91.5q101 0 193 -30.5t170.5 -91t132.5 -160.5t72 -228h-275q-29 121 -101.5 177.5t-191.5 56.5q-150 0 -241 -126t-91 -335q0 -204 91.5 -329.5t240.5 -125.5q109 0 187 65.5t106 192.5h279q-16 -121 -58 -216t-104 -157.5 t-135.5 -100t-159.5 -52.5l-21 -105q123 -15 129 -141q4 -97 -50.5 -164.5t-141.5 -75.5q-62 -6 -127.5 11t-114.5 53l17 158q3 -4 7.5 -7t10.5 -6t10.5 -5t13.5 -4.5t13 -3.5l14 -3.5t13 -3.5q32 -12 63.5 -1t38.5 44q6 29 -5 50t-32 30t-39 12.5t-35 3.5l33 154 q-244 32 -389 228t-145 499z" />
<glyph unicode="&#xe8;" horiz-adv-x="991" d="M135 0v1434h754v-269h-463v-291h430v-268h-430v-327h477v-279h-768zM274 1786v24l250 97l135 -320v-26h-219z" />
<glyph unicode="&#xe9;" horiz-adv-x="991" d="M135 0v1434h754v-269h-463v-291h430v-268h-430v-327h477v-279h-768zM393 1573v26l137 320l248 -96v-25l-166 -225h-219z" />
<glyph unicode="&#xea;" horiz-adv-x="991" d="M135 0v1434h754v-269h-463v-291h430v-268h-430v-327h477v-279h-768zM154 1563v26l239 299h260l238 -301v-24h-248l-121 155l-116 -155h-252z" />
<glyph unicode="&#xeb;" horiz-adv-x="991" d="M129 1706q0 66 43.5 106.5t108.5 40.5q63 0 107 -39t44 -108q0 -67 -44 -107t-107 -40t-107.5 40t-44.5 107zM135 0v1434h754v-269h-463v-291h430v-268h-430v-327h477v-279h-768zM598 1706q0 66 43 106.5t107 40.5q63 0 107 -40t44 -107q0 -66 -44 -106.5t-107 -40.5 q-64 0 -107 40t-43 107z" />
<glyph unicode="&#xec;" horiz-adv-x="765" d="M74 0v244h164v952h-150v238h590v-238h-150v-952h162v-244h-616zM121 1776v24l248 96l137 -323v-27h-221z" />
<glyph unicode="&#xed;" horiz-adv-x="765" d="M74 0v244h164v952h-150v238h590v-238h-150v-952h162v-244h-616zM248 1538v27l137 331l248 -96v-24l-166 -238h-219z" />
<glyph unicode="&#xee;" horiz-adv-x="763" d="M18 1573v29l240 294h260l238 -297v-26h-248l-121 156l-119 -156h-250zM74 0v244h164v952h-150v238h588v-238h-150v-952h164v-244h-616z" />
<glyph unicode="&#xef;" horiz-adv-x="765" d="M20 1692q0 66 43.5 106.5t108.5 40.5q64 0 108 -39t44 -108q0 -67 -44.5 -107.5t-107.5 -40.5t-107.5 40.5t-44.5 107.5zM74 0v244h164v952h-150v238h590v-238h-150v-952h164v-244h-618zM449 1692q0 66 42.5 106.5t106.5 40.5q63 0 107.5 -40t44.5 -107q0 -66 -44.5 -107 t-107.5 -41t-106 40.5t-43 107.5z" />
<glyph unicode="&#xf0;" horiz-adv-x="1318" d="M61 586v239h123v609h459q179 0 316.5 -88.5t212.5 -250.5t75 -374q0 -324 -166.5 -522.5t-437.5 -198.5h-459v586h-123zM473 276h166q144 0 231.5 121.5t87.5 321.5q0 197 -87.5 317.5t-231.5 120.5h-166v-332h197v-239h-197v-310z" />
<glyph unicode="&#xf1;" horiz-adv-x="1306" d="M133 0v1444h90l660 -809v799h291v-1444h-87l-665 801v-791h-289zM272 1653q33 98 81 145t122 51q38 0 80 -14.5t71.5 -29.5t57.5 -23.5t48 4.5t32 53l135 -61q-18 -85 -67.5 -141t-120.5 -60q-36 -3 -75 10.5t-79 33.5t-61 26q-61 15 -88 -62z" />
<glyph unicode="&#xf2;" horiz-adv-x="1386" d="M70 717q0 332 171.5 534.5t452.5 202.5q184 0 325.5 -91.5t219.5 -259.5t78 -386t-78 -386t-219.5 -259.5t-325.5 -91.5q-281 0 -452.5 202.5t-171.5 534.5zM360 717q0 -209 91 -335t243 -126t243 126t91 335q0 206 -91 332.5t-243 126.5t-243 -126.5t-91 -332.5z M424 1810v25l260 94l150 -340v-22h-230z" />
<glyph unicode="&#xf3;" horiz-adv-x="1386" d="M70 717q0 332 171.5 534.5t452.5 202.5q184 0 325.5 -91.5t219.5 -259.5t78 -386t-78 -386t-219.5 -259.5t-325.5 -91.5q-281 0 -452.5 202.5t-171.5 534.5zM360 717q0 -209 91 -335t243 -126t243 126t91 335q0 206 -91 332.5t-243 126.5t-243 -126.5t-91 -332.5z M551 1563v26l147 357l258 -95v-24l-176 -264h-229z" />
<glyph unicode="&#xf4;" horiz-adv-x="1386" d="M70 717q0 332 171.5 534.5t452.5 202.5q184 0 325.5 -91.5t219.5 -259.5t78 -386t-78 -386t-219.5 -259.5t-325.5 -91.5q-281 0 -452.5 202.5t-171.5 534.5zM301 1563v28l252 303h270l250 -305v-26h-260l-125 159l-123 -159h-264zM360 717q0 -209 91 -335t243 -126 t243 126t91 335q0 206 -91 332.5t-243 126.5t-243 -126.5t-91 -332.5z" />
<glyph unicode="&#xf5;" horiz-adv-x="1386" d="M70 717q0 332 171.5 534.5t452.5 202.5q184 0 325.5 -91.5t219.5 -259.5t78 -386t-78 -386t-219.5 -259.5t-325.5 -91.5q-281 0 -452.5 202.5t-171.5 534.5zM332 1671q33 98 81 145.5t122 51.5q38 0 80 -14.5t71.5 -29.5t57 -23.5t47.5 4.5t32 53l135 -62 q-18 -85 -67.5 -141t-120.5 -60q-36 -3 -75 10.5t-79 33.5t-61 26q-61 15 -88 -61zM360 717q0 -209 91 -335t243 -126t243 126t91 335q0 206 -91 332.5t-243 126.5t-243 -126.5t-91 -332.5z" />
<glyph unicode="&#xf6;" horiz-adv-x="1386" d="M70 717q0 332 171.5 534.5t452.5 202.5q184 0 325.5 -91.5t219.5 -259.5t78 -386t-78 -386t-219.5 -259.5t-325.5 -91.5q-281 0 -452.5 202.5t-171.5 534.5zM313 1731q0 66 43.5 106.5t108.5 40.5q63 0 107 -39t44 -108q0 -67 -44 -107.5t-107 -40.5t-107.5 40.5 t-44.5 107.5zM360 717q0 -209 91 -335t243 -126t243 126t91 335q0 206 -91 332.5t-243 126.5t-243 -126.5t-91 -332.5zM782 1731q0 66 43.5 106.5t106.5 40.5q64 0 107.5 -40t43.5 -107q0 -66 -44 -107t-107 -41q-64 0 -107 40.5t-43 107.5z" />
<glyph unicode="&#xf7;" horiz-adv-x="946" d="M84 610v246h780v-246h-780zM317 342q0 71 45.5 114.5t112.5 43.5q69 0 114.5 -41.5t45.5 -116.5q0 -70 -46 -113t-114 -43t-113 41.5t-45 114.5zM317 1130q0 71 45.5 114.5t112.5 43.5q69 0 114.5 -41.5t45.5 -116.5q0 -70 -46 -112.5t-114 -42.5q-69 0 -113.5 41 t-44.5 114z" />
<glyph unicode="&#xf8;" horiz-adv-x="1384" d="M72 717q0 163 48.5 302t132.5 234.5t198 149t243 53.5q114 0 221 -49l68 141h272v-28l-131 -246q189 -202 189 -557q0 -132 -34 -250.5t-93 -207t-137.5 -153.5t-170 -98t-186.5 -33q-114 0 -203 45l-71 -143h-135q-1 0 -68 -0.5t-68 0.5v31l127 239q-202 208 -202 570z M362 659q9 -155 76 -249l342 733q-42 22 -86 22q-85 0 -159 -52t-122 -156t-51 -240v-58zM625 287q37 -21 71 -21q130 0 229 126.5t99 324.5q0 169 -66 291z" />
<glyph unicode="&#xf9;" horiz-adv-x="1228" d="M125 477v957h291v-871q0 -57 10.5 -109t32.5 -99t63 -75t96 -28q90 0 144.5 77t54.5 234v871h287v-957q0 -146 -70 -261t-180.5 -174.5t-237.5 -59.5q-96 0 -182.5 31t-156.5 90.5t-111 156t-41 217.5zM356 1792v25l250 96l127 -281q4 -8 8 -39v-26h-219z" />
<glyph unicode="&#xfa;" horiz-adv-x="1228" d="M125 477v957h291v-871q0 -57 10.5 -109t32.5 -99t63 -75t96 -28q90 0 144.5 77t54.5 234v871h287v-957q0 -146 -70 -261t-180.5 -174.5t-237.5 -59.5q-96 0 -182.5 31t-156.5 90.5t-111 156t-41 217.5zM489 1565v26l138 320l247 -96v-25l-165 -225h-220z" />
<glyph unicode="&#xfb;" horiz-adv-x="1228" d="M125 477v957h291v-871q0 -57 10.5 -109t32.5 -99t63 -75t96 -28q90 0 144.5 77t54.5 234v871h287v-957q0 -146 -70 -261t-180.5 -174.5t-237.5 -59.5q-96 0 -182.5 31t-156.5 90.5t-111 156t-41 217.5zM225 1583v29l250 303h273l247 -305v-27h-258l-127 160l-123 -160 h-262z" />
<glyph unicode="&#xfc;" horiz-adv-x="1228" d="M125 477v957h291v-871q0 -57 10.5 -109t32.5 -99t63 -75t96 -28q90 0 144.5 77t54.5 234v871h287v-957q0 -146 -70 -261t-180.5 -174.5t-237.5 -59.5q-96 0 -182.5 31t-156.5 90.5t-111 156t-41 217.5zM236 1702q0 66 43 106.5t106 40.5q64 0 108 -39t44 -108 q0 -67 -44 -107.5t-108 -40.5q-62 0 -105.5 40.5t-43.5 107.5zM702 1702q0 66 43.5 106.5t108.5 40.5q63 0 106.5 -40t43.5 -107q0 -66 -43.5 -107t-106.5 -41q-64 0 -108 40.5t-44 107.5z" />
<glyph unicode="&#xfd;" horiz-adv-x="1153" d="M18 1389v45h312l139 -306q56 -125 106 -280h7q43 152 108 291l137 295h308v-45l-412 -816v-573h-291v573zM440 1556v27l135 344l250 -96v-25l-166 -250h-219z" />
<glyph unicode="&#xfe;" horiz-adv-x="1144" d="M135 0v1434h291v-187h211q209 0 336 -144t127 -380q0 -228 -129 -370t-334 -142h-211v-211h-291zM422 473h215q86 0 136 70t50 188q0 116 -50 185t-136 69h-215v-512z" />
<glyph unicode="&#xff;" horiz-adv-x="1153" d="M18 1389v45h312l139 -306q56 -125 106 -280h7q43 152 108 291l137 295h308v-45l-412 -816v-573h-291v573zM193 1710q0 66 44 107t107 41t107.5 -39.5t44.5 -108.5q0 -67 -44 -107t-108 -40q-63 0 -107 40t-44 107zM662 1710q0 66 43.5 107t107.5 41q62 0 106 -40.5 t44 -107.5q0 -66 -43.5 -106.5t-106.5 -40.5q-64 0 -107.5 40t-43.5 107z" />
<glyph unicode="&#x152;" horiz-adv-x="1603" d="M72 713q0 175 48.5 317.5t133 234.5t197 140.5t241.5 46.5q76 0 166 -22h643v-238h-440v-328h407v-221h-407v-410h457v-233h-666q-95 -25 -176 -25q-124 0 -233 49.5t-192 141t-131 233t-48 314.5zM352 713q0 -218 95.5 -355t252.5 -137q60 0 117 23v930q-70 24 -119 24 q-155 0 -250.5 -124t-95.5 -361z" />
<glyph unicode="&#x153;" horiz-adv-x="1603" d="M72 713q0 175 48.5 317.5t133 234.5t197 140.5t241.5 46.5q76 0 166 -22h643v-238h-440v-328h407v-221h-407v-410h457v-233h-666q-95 -25 -176 -25q-124 0 -233 49.5t-192 141t-131 233t-48 314.5zM352 713q0 -218 95.5 -355t252.5 -137q60 0 117 23v930q-70 24 -119 24 q-155 0 -250.5 -124t-95.5 -361z" />
<glyph unicode="&#x178;" horiz-adv-x="1153" d="M18 1389v45h312l139 -306q56 -125 106 -280h7q43 152 108 291l137 295h308v-45l-412 -816v-573h-291v573zM193 1710q0 66 44 107t107 41t107.5 -39.5t44.5 -108.5q0 -67 -44 -107t-108 -40q-63 0 -107 40t-44 107zM662 1710q0 66 43.5 107t107.5 41q62 0 106 -40.5 t44 -107.5q0 -66 -43.5 -106.5t-106.5 -40.5q-64 0 -107.5 40t-43.5 107z" />
<glyph unicode="&#x2c6;" horiz-adv-x="884" d="M82 1106v29l250 303h272l248 -305v-27h-258l-127 160l-123 -160h-262z" />
<glyph unicode="&#x2dc;" horiz-adv-x="729" d="M51 1262q33 98 81 145t122 51q38 0 80 -14.5t71.5 -29.5t57.5 -23.5t48 4.5t32 53l135 -62q-18 -85 -68 -140.5t-121 -59.5q-49 -4 -127.5 31.5t-87.5 37.5q-61 15 -88 -61z" />
<glyph unicode="&#x2000;" horiz-adv-x="973" />
<glyph unicode="&#x2001;" horiz-adv-x="1946" />
<glyph unicode="&#x2002;" horiz-adv-x="973" />
<glyph unicode="&#x2003;" horiz-adv-x="1946" />
<glyph unicode="&#x2004;" horiz-adv-x="648" />
<glyph unicode="&#x2005;" horiz-adv-x="486" />
<glyph unicode="&#x2006;" horiz-adv-x="324" />
<glyph unicode="&#x2007;" horiz-adv-x="324" />
<glyph unicode="&#x2008;" horiz-adv-x="243" />
<glyph unicode="&#x2009;" horiz-adv-x="389" />
<glyph unicode="&#x200a;" horiz-adv-x="108" />
<glyph unicode="&#x2010;" horiz-adv-x="823" d="M102 559v246h619v-246h-619z" />
<glyph unicode="&#x2011;" horiz-adv-x="823" d="M102 559v246h619v-246h-619z" />
<glyph unicode="&#x2012;" horiz-adv-x="823" d="M102 559v246h619v-246h-619z" />
<glyph unicode="&#x2013;" horiz-adv-x="948" d="M102 559v246h744v-246h-744z" />
<glyph unicode="&#x2014;" horiz-adv-x="1101" d="M102 559v246h897v-246h-897z" />
<glyph unicode="&#x2018;" horiz-adv-x="464" d="M78 1120q0 24 16 90l72 230h158l-43 -172q51 -18 81.5 -57.5t30.5 -94.5q0 -70 -44.5 -112.5t-112.5 -42.5q-63 0 -105.5 28t-48.5 76q-4 32 -4 55z" />
<glyph unicode="&#x2019;" horiz-adv-x="464" d="M76 1290q0 69 44 113.5t113 44.5q61 0 104 -28.5t50 -78.5q4 -32 4 -53l-6 -43l-10 -47q-11 -47 -40 -131.5t-34 -99.5h-158l43 174q-48 12 -79 53t-31 96z" />
<glyph unicode="&#x201a;" horiz-adv-x="485" d="M84 123q0 72 44.5 115t113.5 43t113 -42t44 -118q0 -24 -10 -66l-6 -26q-25 -86 -74 -232h-157l43 174q-111 41 -111 152z" />
<glyph unicode="&#x201c;" horiz-adv-x="872" d="M78 1118q0 34 14 92l74 230h158l-43 -174q112 -39 112 -150q0 -70 -46 -114t-114 -44q-61 0 -103 29t-48 78q-4 9 -4 53zM485 1118q0 34 15 92l73 230h158l-43 -174q111 -41 111 -150q0 -69 -45 -113.5t-113 -44.5q-61 0 -104 29t-50 78q-2 14 -2 53z" />
<glyph unicode="&#x201d;" horiz-adv-x="878" d="M76 1290q0 69 44 113.5t113 44.5q61 0 104 -28.5t50 -78.5q4 -32 4 -53l-6 -43l-10 -47q-11 -47 -40 -131.5t-34 -99.5h-158l43 174q-48 12 -79 53t-31 96zM489 1290q0 69 44.5 113.5t113.5 44.5q60 0 102 -27.5t52 -79.5q2 -14 2 -53q0 -42 -8 -63l-80 -258h-158l43 174 q-48 12 -79.5 53t-31.5 96z" />
<glyph unicode="&#x201e;" horiz-adv-x="894" d="M84 123q0 71 45.5 114.5t112.5 43.5q68 0 112.5 -43.5t44.5 -116.5q0 -17 -4 -45l-4 -21l-8 -26l-72 -230h-159l45 172q-113 39 -113 152zM492 123q0 69 44 113.5t113 44.5q61 0 104 -28.5t50 -78.5q4 -32 4 -53q0 -3 -6 -45l-4 -21q-15 -40 -40 -128t-40 -128h-158 l45 172q-51 18 -81.5 57.5t-30.5 94.5z" />
<glyph unicode="&#x2022;" horiz-adv-x="808" d="M123 733q0 124 79.5 206.5t200.5 82.5q120 0 201.5 -79t81.5 -210q0 -119 -80.5 -200.5t-202.5 -81.5q-114 0 -197 76t-83 206z" />
<glyph unicode="&#x2026;" horiz-adv-x="1423" d="M82 125q0 71 45.5 115.5t112.5 44.5q68 0 113.5 -44t45.5 -116q0 -70 -45.5 -113t-113.5 -43t-113 43t-45 113zM549 125q0 69 46 114.5t114 45.5q69 0 113 -42t44 -118q0 -71 -44.5 -113.5t-112.5 -42.5t-114 43t-46 113zM1022 125q0 71 45.5 115.5t114.5 44.5t113 -42 t44 -118q0 -71 -44.5 -113.5t-112.5 -42.5t-114 43t-46 113z" />
<glyph unicode="&#x202f;" horiz-adv-x="389" />
<glyph unicode="&#x2039;" horiz-adv-x="559" d="M68 709l268 499l135 -65l-168 -434l168 -428l-135 -68z" />
<glyph unicode="&#x203a;" horiz-adv-x="557" d="M86 281l168 428l-168 434l133 65l270 -499l-270 -496z" />
<glyph unicode="&#x205f;" horiz-adv-x="486" />
<glyph unicode="&#x20ac;" horiz-adv-x="1132" d="M70 508v162h114q-4 80 2 112h-116v158h137q53 243 211 375.5t375 132.5q138 0 245 -51l-86 -240q-65 35 -149 35q-116 0 -194 -67t-105 -185h346l-43 -158h-340q-9 -64 -2 -112h307l-47 -162h-229q25 -120 107 -192t198 -72q100 0 180 55l94 -248q-133 -71 -282 -71 q-241 0 -392 135.5t-198 392.5h-133z" />
<glyph unicode="&#x2122;" horiz-adv-x="1327" d="M115 1266v170h448v-170h-133v-402h-180v402h-135zM641 864v572h88l193 -242l190 242h88v-572h-178v244l-96 -139h-8l-99 139v-244h-178z" />
<glyph unicode="&#x25fc;" horiz-adv-x="1433" d="M0 0v1434h1434v-1434h-1434z" />
</font>
</defs>
</svg>
