<?xml version="1.0" standalone="no"?>
<!DOCTYPE svg PUBLIC "-//W3C//DTD SVG 1.1//EN" "http://www.w3.org/Graphics/SVG/1.1/DTD/svg11.dtd" >
<svg xmlns="http://www.w3.org/2000/svg">
<metadata></metadata>
<defs>
<font id="lektonregular" horiz-adv-x="1024" >
<font-face units-per-em="2048" ascent="1536" descent="-512" />
<missing-glyph horiz-adv-x="500" />
<glyph unicode="&#xfb01;" d="M12 870v103h195q0 201 87 303t251 102q131 0 250 -30l39 -11l-21 -100q-152 41 -269.5 41t-173 -75t-55.5 -230h551v-973h-108v870h-443v-870h-108v870h-195z" />
<glyph unicode="&#xfb02;" d="M2 870v103h195q0 201 87 303t251 102q133 -2 299 -22l55 -6v-1350h-109v1262q-145 16 -256 16q-221 0 -219 -305h330v-103h-330v-870h-108v870h-195z" />
<glyph unicode="&#xfb03;" horiz-adv-x="2048" d="M236 870v103h235q0 195 109.5 300t279.5 105q100 0 283 -47q78 47 168 47q156 0 323 -30l56 -11l-21 -100q-213 41 -330.5 41t-173 -75t-55.5 -230h612v-973h-108v870h-504v-870h-109v870h-421v-870h-109v870h-235zM580 973h421q0 172 58 272q-127 33 -195 33 q-129 0 -206.5 -79t-77.5 -226z" />
<glyph unicode="&#xfb04;" horiz-adv-x="2048" d="M236 870v103h215q0 195 107.5 300t277.5 105q121 0 303 -49q78 49 166 49q156 -2 352 -22l65 -6v-1350h-108v1262q-184 16 -295 16q-221 0 -221 -305h350v-103h-350v-870h-109v870h-430v-870h-108v870h-215zM559 973h430q0 174 66 274q-150 31 -215 31q-129 0 -205 -79 t-76 -226z" />
<glyph horiz-adv-x="0" />
<glyph unicode="&#xd;" horiz-adv-x="681" />
<glyph unicode=" " />
<glyph unicode="!" d="M399 -12v176h156v-176h-156zM410 1409h135l-19 -1024h-98z" />
<glyph unicode="&#x22;" d="M293 948v445h108v-445h-108zM621 948v445h108v-445h-108z" />
<glyph unicode="#" d="M0 393v90h238l45 414h-236v88h244l39 356h106l-39 -356h297l37 356h107l-37 -356h223v-88h-233l-46 -414h232v-90h-242l-43 -393h-108l45 393h-295l-45 -393h-107l45 393h-227zM344 483h295l45 414h-295z" />
<glyph unicode="$" d="M113 43l26 102q199 -59 329 -59t214 72.5t84 197.5t-60.5 176.5t-246 96.5t-266 122.5t-80.5 228t94 234.5t235 99v172h105v-170q162 -6 321 -64l-28 -102q-177 63 -324 63q-281 0 -280 -225q0 -111 61 -166t242.5 -98t264.5 -124t83 -241.5t-99.5 -259t-259.5 -112.5 v-174h-102v172q-139 8 -313 59z" />
<glyph unicode="%" d="M0 1075q0 123 71.5 194.5t180 71.5t180.5 -71.5t72 -194.5t-72 -194.5t-180.5 -71.5t-180 71.5t-71.5 194.5zM98 1075q0 -82 44 -127t109.5 -45t110 45t44.5 127t-44.5 127t-110 45t-109.5 -45t-44 -127zM168 0l567 1362h115l-567 -1362h-115zM518 266q0 123 72 194.5 t180.5 71.5t180 -71.5t71.5 -194.5t-71.5 -194.5t-180 -71.5t-180.5 71.5t-72 194.5zM616 266q0 -82 44.5 -127t110 -45t109.5 45t44 127t-44 127t-109.5 45t-110 -45t-44.5 -127z" />
<glyph unicode="&#x26;" d="M10 403q0 293 320 418q-100 162 -100.5 275.5t79.5 189.5t208 76t206 -75t78 -192.5t-65.5 -192.5t-237.5 -152l272 -424q74 154 131 422l100 -17q-49 -270 -163 -491q27 -43 67 -97l96 -120l-79 -66q-98 115 -154 199q-156 -176 -345.5 -176t-301 111t-111.5 312z M127 403q0 -152 78 -237.5t215 -85.5q76 0 155.5 43t133.5 113l-332 505q-250 -105 -250 -338zM344 1097.5q0 -71.5 23.5 -128t81.5 -138.5q129 50 183 110t54 146.5t-45 130.5t-123 44t-126 -46.5t-48 -118z" />
<glyph unicode="'" d="M453 948v445h108v-445h-108z" />
<glyph unicode="(" d="M369 652q0 306 80.5 534.5t230.5 443.5l86 -55q-135 -199 -210 -412t-75 -511t76 -513t209 -409l-86 -58q-150 217 -230.5 445.5t-80.5 534.5z" />
<glyph unicode=")" d="M258 -270q133 194 209 409t76 513t-75 511t-210 412l86 55q150 -215 230.5 -443.5t80.5 -534.5t-80.5 -534.5t-230.5 -445.5z" />
<glyph unicode="*" d="M143 1034v92h303l-92 287l92 31l91 -291l243 178l56 -74l-246 -180l246 -174l-58 -80l-243 181l-95 -287l-92 33l96 284h-301z" />
<glyph unicode="+" d="M49 532v95h410v405h102v-405h412v-95h-412v-407h-102v407h-410z" />
<glyph unicode="," d="M336 -244q92 135 100 244h-82v229h195v-168q0 -184 -158 -354z" />
<glyph unicode="-" d="M225 436v111h588v-111h-588z" />
<glyph unicode="." d="M358 0v248h226v-248h-226z" />
<glyph unicode="/" d="M51 -51l846 1493l76 -45l-848 -1493z" />
<glyph unicode="0" d="M119 652.5q0 359.5 92 513t300 153.5t300 -153.5t92 -513t-92 -515t-300 -155.5t-300 155.5t-92 515zM250 653q0 -303 56 -434t203.5 -131t205 131t57.5 435t-55 431t-205 127t-206 -128t-56 -431z" />
<glyph unicode="1" d="M127 1122l397 178h109v-1196h297v-104h-768v104h350v1065l-338 -155z" />
<glyph unicode="2" d="M133 1159q215 158 372 158t260 -99.5t103 -291t-172 -359.5q-78 -74 -155 -141q-201 -172 -256 -309h633v-117h-768v100q37 104 113.5 200.5t156.5 166.5l155 139q172 160 173 334q0 121 -72 195.5t-179.5 74.5t-306.5 -137z" />
<glyph unicode="3" d="M94 61l37 105q207 -80 350.5 -80t225 67.5t81.5 205t-69.5 202t-216.5 64.5l-223 -25l-15 92l148 23q166 25 246.5 89t80.5 181t-72.5 171t-187 54t-319.5 -90l-39 97q80 39 188.5 69.5t179.5 30.5q168 0 267.5 -80t99.5 -244q0 -115 -46 -179t-153 -118v-4 q252 -53 252 -334q0 -379 -424 -378q-170 0 -391 81z" />
<glyph unicode="4" d="M88 260v96l336 942h117l-326 -931h428v430h113v-430h184v-107h-184v-280h-113v280h-555z" />
<glyph unicode="5" d="M117 66l39 104q188 -84 333.5 -84t225.5 93t80 240.5t-73 225.5t-207 78t-273 -119l-76 23l20 671h684v-112h-581l-15 -445q123 88 252 88q185 0 286 -106.5t101 -305t-111.5 -318t-314.5 -119.5q-162 0 -370 86z" />
<glyph unicode="6" d="M111 438.5q0 225.5 64.5 387t195.5 277.5t364 230l45 -100q-266 -133 -375.5 -249t-154.5 -288q131 131 272 131q199 0 303.5 -104.5t104.5 -306t-106.5 -319t-300 -117.5t-303 116.5t-109.5 342zM229 426q0 -340 293 -340q141 0 215 88t74 246q0 301 -289 301 q-121 0 -207 -85t-86 -210z" />
<glyph unicode="7" d="M115 1083l39 215h727v-114q-12 -123 -232 -514q-80 -143 -146.5 -330.5t-66.5 -339.5h-121q0 158 66 352q66 193 147 340l156 291q74 143 80 209h-520l-29 -117z" />
<glyph unicode="8" d="M102 340q0 242 217 324q-190 94 -190 303q0 156 101.5 253t286.5 97t285.5 -97.5t100.5 -252.5q0 -219 -192 -299q221 -82 221 -328q0 -166 -107.5 -263t-308.5 -97t-307.5 97t-106.5 263zM221 344q0 -125 76 -192.5t219 -67.5t220 68.5t77 192.5t-75.5 195.5t-219 71.5 t-220.5 -71.5t-77 -196.5zM246 968.5q0 -112.5 66.5 -183t204.5 -70.5t203.5 67.5t65.5 183t-66.5 181t-203.5 65.5t-203.5 -65.5t-66.5 -178z" />
<glyph unicode="9" d="M129 891.5q0 191.5 110.5 308.5t296 117t290 -112.5t104.5 -313.5q0 -276 -96.5 -481t-313.5 -445l-137 23q193 209 277.5 344t130.5 289q-131 -131 -263 -132q-190 0 -294.5 105.5t-104.5 297zM248 897q0 -301 280 -301q121 0 202 84t81 211q0 319 -281 319 q-133 0 -207.5 -86t-74.5 -227z" />
<glyph unicode=":" d="M356 0v248h226v-248h-226zM356 594v248h226v-248h-226z" />
<glyph unicode=";" d="M336 -244q92 135 100 244h-82v229h195v-168q0 -184 -158 -354zM354 621v208h189v-208h-189z" />
<glyph unicode="&#x3c;" d="M90 565v66l776 481l56 -84l-709 -430l707 -451l-54 -84z" />
<glyph unicode="=" d="M51 334v90h920v-90h-920zM51 678v90h920v-90h-920z" />
<glyph unicode="&#x3e;" d="M90 1028l55 84l777 -481v-66l-777 -502l-53 84l707 451z" />
<glyph unicode="?" d="M139 1223q115 90 201 133t184 43q150 0 249 -81t99 -213t-36.5 -205t-145 -174t-136.5 -146t-28 -111t4 -139l-106 -4q-16 66 -16 152.5t34.5 143t143 159t138.5 159.5t30 149.5t-62.5 147.5t-155 55t-164 -37.5t-171.5 -115.5zM399 -12v190h174v-190h-174z" />
<glyph unicode="@" d="M113 422.5q0 318.5 126 485.5t359 167q96 0 177 -19.5t114 -39.5l35 -19v-886q-117 -55 -287 -56q-270 0 -266 387q2 131 51 234q59 123 215 121q84 0 176 -25v166q-78 39 -215 39q-174 0 -275.5 -140.5t-101.5 -412.5t101.5 -409.5t243 -137.5t319.5 55l26 -98 q-168 -57 -336 -57q-215 0 -338.5 163.5t-123.5 482zM481 442q0 -139 34 -212.5t134 -73.5q59 0 142 16l22 6v488q-51 29 -172 28q-160 0 -160 -252z" />
<glyph unicode="A" d="M35 0l385 1341h196l371 -1341h-121l-84 309h-542l-86 -309h-119zM268 412h488l-221 827h-35z" />
<glyph unicode="B" d="M137 0v1341h316q225 0 334.5 -80.5t109.5 -267.5q0 -233 -227 -303q135 -31 199.5 -102.5t64.5 -208.5q0 -217 -123 -298t-377 -81h-297zM250 100h184q190 0 285.5 60.5t95.5 218.5q0 250 -340 250h-225v-529zM250 729h219q129 0 219 58.5t92 214.5q0 3 1 6 q0 150 -109 196q-88 37 -219 37h-203v-512z" />
<glyph unicode="C" d="M113 669.5q0 362.5 110.5 527.5t354.5 165q160 0 321 -51v-271h-113v183q-87 32 -201 32h-7q-184 0 -264.5 -137t-80.5 -444t86.5 -446.5t258.5 -139.5q129 0 307 55l26 -106q-168 -57 -336 -57q-233 0 -347.5 163.5t-114.5 526z" />
<glyph unicode="D" d="M123 0v1341h274q152 0 249 -29.5t165 -105.5t97.5 -206t29.5 -329.5t-33 -331.5t-104.5 -206t-167.5 -103.5t-240 -29.5h-270zM236 102h157q158 0 245 45.5t133 169t46 354t-45 354.5t-131 169t-244 45h-161v-1137z" />
<glyph unicode="E" d="M168 0v1341h698v-100h-585v-508h530v-100h-530v-533h591v-100h-704z" />
<glyph unicode="F" d="M176 0v1341h701v-104h-588v-586h504v-102h-504v-549h-113z" />
<glyph unicode="G" d="M78 670.5q0 363.5 112.5 527.5t366.5 164q166 0 348 -66l-28 -104q-186 63 -320 63q-193 0 -275.5 -136t-82.5 -444t86 -448.5t260 -140.5q104 0 252 49v410h-232v100h344v-590q-208 -75 -360 -75h-4q-238 0 -352.5 163.5t-114.5 527z" />
<glyph unicode="H" d="M111 0v1341h112v-622h578v622h112v-1341h-112v614h-578v-614h-112z" />
<glyph unicode="I" d="M227 0v102h232v1137h-232v102h572v-102h-228v-1137h228v-102h-572z" />
<glyph unicode="J" d="M119 12l22 107q139 -35 233.5 -35t123 62.5t28.5 299.5v793h-329v102h546v-102h-104v-799q0 -279 -48 -369.5t-226 -93.5q-35 0 -121 12.5t-125 22.5z" />
<glyph unicode="K" d="M145 0v1341h113v-632l199 20q145 221 288 508l54 104h129q-205 -410 -367 -651q61 -92 156 -264l225 -426h-137q-229 449 -340 625l-207 -21v-604h-113z" />
<glyph unicode="L" d="M186 0v1341h113v-1237h559v-104h-672z" />
<glyph unicode="M" d="M98 0v1341h109l289 -751h30l289 751h109v-1341h-111v1040h-8l-215 -555h-158l-215 557h-8v-1042h-111z" />
<glyph unicode="N" d="M104 0v1341h111l586 -927h6v927h113v-1341h-113v211l-584 917h-6v-1128h-113z" />
<glyph unicode="O" d="M82 684q0 160 20 277t66 210q92 190 344 191q287 -2 377 -268q53 -154 53 -362t-20.5 -330.5t-65.5 -221.5q-94 -200 -342 -200h-2q-246 0 -342 200q-88 182 -88 504zM202 714q0 -154 11.5 -249.5t42.5 -188.5q63 -190 256 -190q197 0 258 193q51 158 51 373v16 q0 111 -5 178t-23.5 149t-50 135.5t-90 89t-140.5 35.5t-140.5 -35.5t-90 -89t-50.5 -135.5q-29 -125 -29 -276v-5z" />
<glyph unicode="P" d="M141 0v1341h301q246 0 364 -93t118 -322.5t-119 -331.5t-363 -102h-188v-492h-113zM254 594h188q188 0 275.5 75.5t87.5 254t-86.5 247t-276.5 68.5h-188v-645z" />
<glyph unicode="Q" d="M82 688q0 504 217 627q84 48 195 48h4q114 -1 190 -34t123 -90q49 -59 78 -145q53 -154 53 -406q0 -401 -127 -569l121 -180l-66 -89l-133 191q-90 -61 -219 -61t-215 51t-133 149q-88 184 -88 508zM203 660.5q0 -101.5 11 -196.5t42 -190q63 -190 256 -190q90 0 152 45 l-115 113l51 106l137 -139q84 141 84 479v21q0 250 -47 360q-53 127 -141 164q-52 25 -118 25h-3q-68 -1 -121 -24.5t-86 -68.5t-54.5 -96t-31.5 -121.5t-13 -128t-3 -159z" />
<glyph unicode="R" d="M125 0v1341h301q250 0 366.5 -86t116.5 -303q0 -145 -58 -233t-187 -144q139 -264 254 -575h-123q-113 299 -246 551q-111 -6 -143 -6h-168v-545h-113zM238 647h163q188 0 289 68.5t101 236.5t-89.5 227.5t-279.5 59.5h-184v-592z" />
<glyph unicode="S" d="M111 1020q0 162 111.5 252t287.5 90t358 -64l-28 -104q-170 61 -312.5 61t-218.5 -60t-76 -175t61.5 -174.5t245 -107.5t265.5 -127t82 -254t-118 -276t-304 -101q-139 0 -352 59l26 104q209 -57 336 -57t209 70.5t82 197.5t-59.5 186.5t-242.5 103.5t-268 129t-85 247z " />
<glyph unicode="T" d="M98 1237v104h824v-104h-357v-1237h-112v1237h-355z" />
<glyph unicode="U" d="M111 387v954h112v-940q0 -315 289 -315q145 0 217 87t72 228v940h112v-954q0 -199 -103 -303t-302 -104t-298 108.5t-99 298.5z" />
<glyph unicode="V" d="M88 1341h121l297 -1241h20l295 1241h119l-330 -1341h-192z" />
<glyph unicode="W" d="M4 1341h117l137 -1239h23l180 648h108l172 -648h25l137 1239h117l-150 -1341h-206l-148 578h-6l-154 -578h-202z" />
<glyph unicode="X" d="M90 0l330 688l-314 653h144l250 -553h4l248 553h137l-316 -653l349 -688h-148l-280 588h-5l-260 -588h-139z" />
<glyph unicode="Y" d="M59 1341h136l313 -645h4l313 645h136l-396 -761v-580h-110v580z" />
<glyph unicode="Z" d="M143 0v82l602 1157h-602v102h738v-81l-605 -1158h637v-102h-770z" />
<glyph unicode="[" d="M356 -319v1943h422v-102h-305v-1739h305v-102h-422z" />
<glyph unicode="\" d="M33 1409l76 45l845 -1493l-73 -45z" />
<glyph unicode="]" d="M246 -217h305v1739h-305v102h422v-1943h-422v102z" />
<glyph unicode="_" d="M0 -174h1024v-88h-1024v88z" />
<glyph unicode="a" d="M123 276.5q0 141.5 94 219.5q93 80 248 80h2q156 0 274 -13q0 182 -45 249t-182 67t-324 -66l-30 102q190 70 344 70q203 0 274.5 -90t71.5 -315v-430l16 -156l-104 -10l-21 122q-47 -41 -133 -82.5t-164 -41.5q-150 0 -235.5 76.5t-85.5 218zM238 285q0 -197 208 -197 q76 0 165 48t130 89v244q-135 10 -258 10t-184 -52t-61 -142z" />
<glyph unicode="b" d="M158 0v1360h108v-481q154 106 279 106q184 0 284.5 -126t100.5 -359.5t-112.5 -375.5t-307.5 -142q-119 0 -246 59l-4 -41h-102zM266 147q43 -20 118 -39.5t122 -19.5q143 0 225 114.5t82 295t-70.5 281t-203.5 100.5t-273 -117v-615z" />
<glyph unicode="c" d="M166 489.5q0 239.5 104.5 367.5t307.5 128q135 0 268 -43v-287h-111v203q-100 23 -160 23q-147 0 -219.5 -104.5t-72.5 -289t73.5 -292t218.5 -107.5q92 0 256 57l31 -102q-162 -61 -284 -61q-201 0 -306.5 134t-105.5 373.5z" />
<glyph unicode="d" d="M104 484.5q0 232.5 113 366.5t307 134q115 0 244 -55v430h109v-1190l20 -178l-104 -12l-21 108q-154 -106 -283 -106q-182 0 -283.5 135t-101.5 367.5zM221 487.5q0 -180.5 70.5 -290t204 -109.5t272.5 117v614q-43 20 -118 40t-122 20q-145 0 -226 -105.5t-81 -286z" />
<glyph unicode="e" d="M137 485.5q0 235.5 97.5 367.5t284 132t277.5 -123t91 -327l-6 -103h-627q10 -154 82 -249t197.5 -95t295.5 59l31 -102q-166 -63 -311 -63q-201 0 -306.5 134t-105.5 369.5zM254 535h516q0 346 -244 346q-258 0 -272 -346z" />
<glyph unicode="f" d="M166 0v102h203v768h-195v103h195q0 405 300 405h1q98 0 217 -35l-25 -104q-115 33 -188 33q-106 0 -151.5 -72t-45.5 -227h371v-103h-371v-768h375v-102h-686z" />
<glyph unicode="g" d="M106 486.5q0 232.5 111 365.5t307 133q109 0 244 -72l4 60h105v-737l6 -283q0 -182 -109.5 -272.5t-271.5 -90.5t-369 82l37 103q203 -78 322.5 -78t200.5 62.5t81 191.5q0 16 -3 72.5t-3 82.5q-150 -104 -279 -104q-184 0 -283.5 126t-99.5 358.5zM223 488.5 q0 -179.5 69.5 -279.5t203 -100t272.5 116v574q-127 80 -240 80q-145 0 -225 -105.5t-80 -285z" />
<glyph unicode="h" d="M160 0v1360h108v-461q193 86 318 86q293 0 293 -336v-649h-109v649q0 104 -45 167t-156 63t-301 -84v-795h-108z" />
<glyph unicode="i" d="M236 0v102h253v768h-237v103h346v-871h238v-102h-600zM446 1260.5q0 39.5 26 63.5t62.5 24t60 -22.5t23.5 -63.5t-23.5 -67t-60 -26t-62.5 26t-26 65.5z" />
<glyph unicode="j" d="M227 -279q203 29 273.5 77t70.5 182v892h-260v101h369v-993q0 -193 -97.5 -262.5t-342.5 -102.5zM516 1262q0 88 90 88q86 -2 86 -92.5t-86 -90.5q-43 0 -66.5 26t-23.5 69z" />
<glyph unicode="k" d="M199 0v1360h108v-828l133 21q145 189 295 420h123q-143 -231 -330 -455q127 -180 342 -518h-122q-164 266 -297 453l-144 -19v-434h-108z" />
<glyph unicode="l" d="M215 0v102h252v1158l-244 -3l-2 101l354 2v-1258h250v-102h-610z" />
<glyph unicode="m" d="M72 0v973h102l6 -62q102 74 158 74q135 0 186 -88q115 88 201 88q133 0 182 -82t49 -252v-651h-108v651q0 117 -24.5 173.5t-94.5 56.5t-172 -66q12 -70 12 -164v-340h-108v340q0 117 -25 172q-26 57 -96 57l-2 1q-69 0 -158 -66v-815h-108z" />
<glyph unicode="n" d="M156 0v973h104l4 -82q199 94 330 94t205.5 -90t74.5 -246v-649h-108v649q0 100 -49 166q-49 63 -147 63l-2 1q-99 0 -304 -91v-788h-108z" />
<glyph unicode="o" d="M121 483.5q0 501.5 391 501.5t391 -501.5t-391 -501.5t-391 501.5zM238 483.5q0 -395.5 274 -395.5t274 395.5t-274 395.5t-274 -395.5z" />
<glyph unicode="p" d="M139 975l103 12l18 -110q149 108 283 108h2q182 0 282.5 -133t100.5 -366.5t-110.5 -368.5t-307.5 -135q-115 0 -244 55v-430h-108v1190zM266 147q43 -20 118 -39.5t122 -19.5q145 0 225 106.5t80 288t-69.5 289t-199.5 107.5t-276 -117v-615z" />
<glyph unicode="q" d="M106 485.5q0 233.5 111 366.5t307 133q109 0 244 -72l4 60h105v-1362h-109v475q-150 -104 -279 -104q-182 0 -282.5 135t-100.5 368.5zM223 486.5q0 -181.5 71 -290t203 -108.5t271 117v594q-127 80 -240 80q-145 0 -225 -105.5t-80 -287z" />
<glyph unicode="r" d="M186 0v102h193v768h-193v103h301l5 -119q66 41 184.5 82t208.5 49v-121q-84 -6 -208 -41t-185 -71v-650h327v-102h-633z" />
<glyph unicode="s" d="M160 47l26 107q203 -68 313.5 -68t171 48t60.5 128t-48 118t-199.5 72.5t-227.5 100.5q-76 61 -76 184t93.5 187.5t241 64.5t319.5 -65l-29 -97q-175 57 -281 57l-2 1q-104 0 -166 -37q-61 -41 -61 -110.5t54 -108.5t210 -78t221.5 -99.5t65.5 -189.5t-88 -205 q-86 -76 -245.5 -76t-352.5 66z" />
<glyph unicode="t" d="M156 856v102h172v236l108 20v-256h389v-102h-389v-479q0 -160 32 -225.5t130 -65.5t217 39l25 -102q-119 -43 -221.5 -43t-161 26.5t-86 85t-35.5 119.5t-8 162v483h-172z" />
<glyph unicode="u" d="M152 317v656h108v-656q0 -100 48 -164.5t146.5 -64.5t307.5 102v783h108v-973h-104l-4 84q-197 -102 -328 -102t-206.5 90t-75.5 245z" />
<glyph unicode="v" d="M109 973h122l269 -875h37l258 875h123l-297 -973h-205z" />
<glyph unicode="w" d="M72 973h106l107 -875h37l137 494h106l137 -494h37l107 875h106l-116 -973h-218l-104 424h-8l-107 -424h-215z" />
<glyph unicode="x" d="M113 0l329 494l-319 479h141l248 -402l246 402h137l-307 -479l325 -494h-139l-262 416l-260 -416h-139z" />
<glyph unicode="y" d="M109 973h122l289 -828h17l258 828h123l-377 -1139q-53 -162 -111.5 -207t-236.5 -49v105q115 2 153.5 32.5t71.5 128.5l47 142z" />
<glyph unicode="z" d="M160 84l549 786h-531v103h668l10 -84l-551 -787h557v-102h-686z" />
<glyph unicode="{" d="M213 614v107l184 94q0 172 -10 358.5t-10 247.5q0 203 201 203h221v-102h-211q-94 0 -94 -113q0 -68 10 -278.5t10 -380.5l-184 -74v-17l184 -75q0 -152 -10 -376t-10 -312q0 -113 94 -113h211v-102h-221q-201 0 -201 202q0 82 10 283t10 352z" />
<glyph unicode="|" d="M459 -500v2022h108v-2022h-108z" />
<glyph unicode="}" d="M193 -217h210q94 0 95 113q0 88 -10.5 312t-10.5 376l185 75v15l-185 76q0 170 10.5 380.5t10.5 278.5q0 113 -95 113h-210v102h221q201 0 200 -203q0 -61 -10 -247.5t-10 -358.5l184 -96v-105l-184 -96q0 -152 10 -352.5t10 -282.5q0 -203 -200 -202h-221v102z" />
<glyph unicode="~" d="M53 522q150 160 258 160q82 0 217 -80t192.5 -80t178.5 125l72 -61q-76 -82 -132.5 -121t-122 -39t-143 40t-145.5 80t-117 40q-66 2 -184 -127z" />
<glyph unicode="&#xa0;" />
<glyph unicode="&#xa1;" d="M377 852v176h155v-176h-155zM387 -393l19 1024h98l18 -1024h-135z" />
<glyph unicode="&#xa2;" d="M166 485q0 459 352 496v143h109v-141q111 -10 200 -37l-26 -102q-111 37 -226 37q-147 0 -219.5 -104.5t-72.5 -289t73.5 -293t218.5 -108.5q92 0 256 57l31 -102q-119 -45 -231 -57v-131h-109v131q-176 18 -266 149t-90 352z" />
<glyph unicode="&#xa3;" d="M113 96l26 23q129 115 180 213q25 49 25 108.5t-49 188.5h-180v104h141q-45 109 -45 219q0 180 94 273.5t275 93.5q125 0 274 -39l-18 -102q-135 37 -263.5 36.5t-187.5 -64t-59 -193.5t43 -224h407v-104h-368q2 -4 14 -43l20 -54q16 -53 17 -110q0 -133 -178 -285 q0 -2 1 -2t1 -2q41 20 89 20.5t91 -7t122 -36t127 -28.5t95 16q49 12 74 29l24 16l47 -92q-96 -74 -245 -74q-55 -2 -138 27q-117 41 -188 41q-121 0 -182 -49l-21 -16z" />
<glyph unicode="&#xa4;" d="M45 281l141 174q-100 119 -99 279.5t101 277.5l-141 168l82 65l137 -166q233 164 482 -2l137 168l82 -65l-142 -170q100 -117 101.5 -277t-99.5 -278l142 -174l-84 -70l-144 172q-119 -78 -228.5 -79t-240.5 79l-143 -170zM194 731q-1 -133 92 -224t216 -92t231 95 q88 88 87 221t-91 225.5t-219 94.5t-222 -92.5t-94 -227.5z" />
<glyph unicode="&#xa5;" d="M59 1341h142l311 -573h4l315 573h130l-347 -602h275v-102h-320v-191h320v-102h-320v-344h-112v344h-324v102h324v191h-324v102h279z" />
<glyph unicode="&#xa6;" d="M457 399h108v-899h-108v899zM457 621v899h108v-899h-108z" />
<glyph unicode="&#xa7;" d="M160 47l26 107q209 -70 315.5 -70t164 44t57.5 112.5t-40 102.5t-199.5 72t-241.5 100.5t-82 180t127 199.5q-106 63 -106.5 202.5t92 208t246 68.5t315.5 -61l-29 -101q-182 59 -287 60q-223 0 -223 -166q0 -74 53 -114t217 -79t232.5 -94t68.5 -175t-102 -218 q74 -55 74 -176t-88 -194.5t-243 -73.5t-347 65zM274 709q0 -43 11.5 -70t48.5 -45q35 -20 72 -33l118 -37q82 -25 150 -51q82 88 82 176q0 57 -56.5 97t-159 61.5t-163.5 44.5q-103 -69 -103 -143z" />
<glyph unicode="&#xa9;" d="M20 556q0 271 127 419.5t367 148.5q489 0 490 -571q0 -281 -131.5 -423t-369 -142t-360.5 148.5t-123 419.5zM113 553q0 -256 102 -369.5t299 -113.5q397 0 397 483q0 260 -102 374.5t-295 114.5q-401 0 -401 -489zM270 554q0 169 54.5 241.5t185.5 72.5q84 0 170 -28 l-25 -84q-63 23 -142 21.5t-108.5 -46.5t-29.5 -173t32.5 -169t102.5 -41t145 23l25 -84q-70 -29 -154 -29q-137 0 -196.5 63.5t-59.5 232.5z" />
<glyph unicode="&#xaa;" d="M285 925q0 91 58 139t158.5 48t153.5 -6q0 96 -27.5 133t-95 37t-202.5 -47l-27 84q133 49 240.5 49t157 -58.5t49.5 -199.5v-254l12 -102q-82 -10 -90 -11l-13 68q-92 -72 -178 -72t-141 50.5t-55 141.5zM379 929q0 -48 29.5 -79t97 -31t149.5 72v137q-86 4 -146 4 t-95 -27.5t-35 -75.5z" />
<glyph unicode="&#xab;" d="M143 426v82l404 346v-133l-297 -258l297 -252v-131zM496 426v82l403 346v-133l-297 -258l297 -252v-131z" />
<glyph unicode="&#xac;" d="M74 815v111h884v-453h-110v342h-774z" />
<glyph unicode="&#xad;" d="M225 436v111h588v-111h-588z" />
<glyph unicode="&#xae;" d="M0 904.5q0 230.5 140.5 368.5t371.5 138t371.5 -139t140.5 -369.5t-140.5 -370t-370.5 -139.5t-371.5 140.5t-141.5 371zM82 903.5q0 -194.5 117.5 -312.5t310 -118t311.5 117t119 312.5t-116.5 313t-311.5 117.5t-312.5 -117.5t-117.5 -312zM319 614v598h164 q131 0 192.5 -41t61.5 -145q0 -150 -121 -180q55 -80 101 -195l14 -37h-94q-43 121 -102 215h-134v-215h-82zM401 907h68q111 0 146.5 20.5t35.5 94.5t-36.5 93.5t-137.5 19.5h-76v-228z" />
<glyph unicode="&#xb0;" d="M227 1147q0 121 80 196.5t205 75.5t204 -75.5t79 -197.5t-79 -198t-205 -76t-205 77t-79 198zM336 1149q0 -84 47 -134t125 -50t128 50t50 131t-48 132t-130 51t-127 -48t-45 -132z" />
<glyph unicode="&#xb1;" d="M31 111v86h962v-86h-962zM31 610v88h430v330h102v-330h430v-88h-430v-311h-102v311h-430z" />
<glyph unicode="&#xb6;" d="M82 981q0 238 107.5 345.5t342.5 107.5h72v-1434h-72v541q-233 18 -341.5 110t-108.5 330zM154 973q0 -201 88.5 -276t289.5 -91v762q-96 -2 -156.5 -15.5t-115.5 -54.5q-106 -78 -106 -325zM860 0v1434h72v-1434h-72z" />
<glyph unicode="&#xb7;" d="M414 618.5q0 116.5 93 116.5t93 -121q0 -59 -21.5 -85.5t-72.5 -26.5q-92 0 -92 116.5z" />
<glyph unicode="&#xba;" d="M254 1049.5q0 148.5 63.5 230.5t188.5 82q256 0 256 -311q0 -150 -66.5 -234t-188.5 -84t-187.5 84t-65.5 232.5zM352 1051q0 -231 154 -232q80 0 119 51.5t39 178.5t-39 177t-117 50t-117 -52.5t-39 -172.5z" />
<glyph unicode="&#xbb;" d="M143 80v131l297 252l-297 258v133l404 -346v-82zM496 80v131l297 252l-297 258v133l403 -346v-82z" />
<glyph unicode="&#xbf;" d="M139 -116q0 132 37 205t145.5 174.5t136 146.5t27.5 110.5t-4 138.5l107 5q16 -66 16 -153t-34.5 -143.5t-143.5 -159t-138.5 -159.5t-29.5 -149.5t62.5 -147.5t154.5 -55t164 38t172 115l61 -83q-115 -90 -200.5 -133.5t-184.5 -43.5q-149 0 -248.5 81t-99.5 213z M438 811v190h174v-190h-174z" />
<glyph unicode="&#xc0;" d="M35 0l385 1341h196l371 -1341h-121l-84 309h-542l-86 -309h-119zM264 1714l39 94l418 -180l-35 -86zM268 412h488l-221 827h-35z" />
<glyph unicode="&#xc1;" d="M35 0l385 1341h196l371 -1341h-121l-84 309h-542l-86 -309h-119zM268 412h488l-221 827h-35zM336 1626l418 180l39 -94l-422 -172z" />
<glyph unicode="&#xc2;" d="M35 0l385 1341h196l371 -1341h-121l-84 309h-542l-86 -309h-119zM219 1540l258 266h82l258 -266h-119l-180 184l-180 -184h-119zM268 412h488l-221 827h-35z" />
<glyph unicode="&#xc3;" d="M35 0l385 1341h196l371 -1341h-121l-84 309h-542l-86 -309h-119zM195 1675q117 111 190.5 111t151 -54.5t114.5 -54.5t125 82l51 -67q-102 -113 -171.5 -113t-147.5 55t-123 55.5t-133 -83.5zM268 412h488l-221 827h-35z" />
<glyph unicode="&#xc4;" d="M35 0l385 1341h196l371 -1341h-121l-84 309h-542l-86 -309h-119zM240 1663q0 31 20.5 53.5t53 22.5t53 -22.5t20.5 -53.5t-20.5 -53.5t-53 -22.5t-53 22.5t-20.5 53.5zM268 412h488l-221 827h-35zM635 1663q0 31 20 53q20 23 53 23t54.5 -22.5t21.5 -53.5t-21.5 -53.5 t-54 -22.5t-53 22.5t-20.5 53.5z" />
<glyph unicode="&#xc5;" d="M35 0l385 1341h196l371 -1341h-121l-84 309h-542l-86 -309h-119zM268 412h488l-221 827h-35zM297 1676q0 91 58.5 143.5t155.5 52.5t155.5 -52.5t58.5 -143.5t-58.5 -143t-155.5 -52t-155.5 52t-58.5 143zM383 1675q0 -55 34 -85.5t93 -30.5t93 30.5t34 85.5 q0 117 -127 117t-127 -117z" />
<glyph unicode="&#xc6;" d="M33 0l389 1341h557v-98h-336v-512h281v-98h-281v-535h342v-98h-455v309h-292l-86 -309h-119zM266 412h264v833h-22z" />
<glyph unicode="&#xc7;" d="M113 669.5q0 362.5 110.5 527.5t354.5 165q160 0 321 -51v-271h-113v183q-90 33 -208 32q-184 0 -264.5 -137t-80.5 -444t86.5 -446.5t258.5 -139.5q129 0 307 55l26 -106q-168 -57 -336 -57q-233 0 -347.5 163.5t-114.5 526zM414 -481l10 88q41 -10 96 -10 q109 0 109 100q0 96 -109 96q-37 0 -88 -10l-12 84q66 16 137.5 16t123.5 -48t52 -139t-52 -141.5t-138 -50.5q-47 0 -129 15z" />
<glyph unicode="&#xc8;" d="M168 0v1341h698v-100h-585v-508h530v-100h-530v-533h591v-100h-704zM283 1714l39 94l417 -180l-34 -86z" />
<glyph unicode="&#xc9;" d="M168 0v1341h698v-100h-585v-508h530v-100h-530v-533h591v-100h-704zM303 1626l418 180l39 -94l-422 -172z" />
<glyph unicode="&#xca;" d="M168 0v1341h698v-100h-585v-508h530v-100h-530v-533h591v-100h-704zM219 1540l258 266h82l258 -266h-119l-180 184l-180 -184h-119z" />
<glyph unicode="&#xcb;" d="M168 0v1341h698v-100h-585v-508h530v-100h-530v-533h591v-100h-704zM240 1663q0 31 20.5 53.5t53 22.5t53 -22.5t20.5 -53.5t-20.5 -53.5t-53 -22.5t-53 22.5t-20.5 53.5zM635 1663q0 31 20 53q20 23 53 23t54.5 -22.5t21.5 -53.5t-21.5 -53.5t-54 -22.5t-53 22.5 t-20.5 53.5z" />
<glyph unicode="&#xcc;" d="M227 0v102h232v1137h-232v102h572v-102h-228v-1137h228v-102h-572zM270 1714l39 94l418 -180l-35 -86z" />
<glyph unicode="&#xcd;" d="M227 0v102h232v1137h-232v102h572v-102h-228v-1137h228v-102h-572zM289 1626l418 180l38 -94l-421 -172z" />
<glyph unicode="&#xce;" d="M219 1540l258 266h82l258 -266h-119l-180 184l-180 -184h-119zM227 0v102h232v1137h-232v102h572v-102h-228v-1137h228v-102h-572z" />
<glyph unicode="&#xcf;" d="M227 0v102h232v1137h-232v102h572v-102h-228v-1137h228v-102h-572zM240 1663q0 31 20.5 53.5t53 22.5t53 -22.5t20.5 -53.5t-20.5 -53.5t-53 -22.5t-53 22.5t-20.5 53.5zM635 1663q0 31 20 53q20 23 53 23t54.5 -22.5t21.5 -53.5t-21.5 -53.5t-54 -22.5t-53 22.5 t-20.5 53.5z" />
<glyph unicode="&#xd0;" d="M53 621v110h111v610h233q152 0 249 -29.5t165 -105.5t97.5 -206t29.5 -329.5t-33 -331.5t-104.5 -206t-167.5 -103.5t-240 -29.5h-229v621h-111zM276 102h117q158 0 245 45.5t133 169t46 354t-45 354.5t-131 169t-244 45h-121v-508h242v-110h-242v-519z" />
<glyph unicode="&#xd1;" d="M104 0v1341h111l586 -927h6v927h113v-1341h-113v211l-584 917h-6v-1128h-113zM195 1675q117 111 190.5 111t151 -54.5t114.5 -54.5t125 82l51 -67q-102 -113 -171.5 -113t-147.5 55t-123 55.5t-133 -83.5z" />
<glyph unicode="&#xd2;" d="M82 684q0 160 20 277t66 210q92 190 344 191q287 -2 377 -268q53 -154 53 -362t-20.5 -330.5t-65.5 -221.5q-94 -201 -344 -200q-246 0 -342 200q-88 182 -88 504zM202.5 713.5q0.5 -154.5 11.5 -249.5t42 -188q63 -190 256 -190q197 0 258 193q53 164 51 389 q0 111 -5 178t-23.5 149t-50 135.5t-90 89t-140.5 35.5t-140.5 -35.5t-90 -89t-50.5 -135.5q-29 -127 -28.5 -281.5zM289 1714l39 94l417 -180l-34 -86z" />
<glyph unicode="&#xd3;" d="M82 684q0 160 20 277t66 210q92 190 344 191q287 -2 377 -268q53 -154 53 -362t-20.5 -330.5t-65.5 -221.5q-94 -201 -344 -200q-246 0 -342 200q-88 182 -88 504zM202.5 713.5q0.5 -154.5 11.5 -249.5t42 -188q63 -190 256 -190q197 0 258 193q53 164 51 389 q0 111 -5 178t-23.5 149t-50 135.5t-90 89t-140.5 35.5t-140.5 -35.5t-90 -89t-50.5 -135.5q-29 -127 -28.5 -281.5zM317 1626l418 180l39 -94l-422 -172z" />
<glyph unicode="&#xd4;" d="M82 684q0 160 20 277t66 210q92 190 344 191q287 -2 377 -268q53 -154 53 -362t-20.5 -330.5t-65.5 -221.5q-94 -201 -344 -200q-246 0 -342 200q-88 182 -88 504zM202.5 713.5q0.5 -154.5 11.5 -249.5t42 -188q63 -190 256 -190q197 0 258 193q53 164 51 389 q0 111 -5 178t-23.5 149t-50 135.5t-90 89t-140.5 35.5t-140.5 -35.5t-90 -89t-50.5 -135.5q-29 -127 -28.5 -281.5zM219 1540l258 266h82l258 -266h-119l-180 184l-180 -184h-119z" />
<glyph unicode="&#xd5;" d="M82 684q0 160 20 277t66 210q92 190 344 191q287 -2 377 -268q53 -154 53 -362t-20.5 -330.5t-65.5 -221.5q-94 -201 -344 -200q-246 0 -342 200q-88 182 -88 504zM195 1675q115 111 189.5 111t152 -54.5t114.5 -54.5t125 82l51 -67q-104 -113 -172.5 -113t-145.5 55.5 t-123 55.5t-134 -84zM202.5 713.5q0.5 -154.5 11.5 -249.5t42 -188q63 -190 256 -190q197 0 258 193q53 164 51 389q0 111 -5 178t-23.5 149t-50 135.5t-90 89t-140.5 35.5t-140.5 -35.5t-90 -89t-50.5 -135.5q-29 -127 -28.5 -281.5z" />
<glyph unicode="&#xd6;" d="M82 684q0 160 20 277t66 210q92 190 344 191q287 -2 377 -268q53 -154 53 -362t-20.5 -330.5t-65.5 -221.5q-94 -201 -344 -200q-246 0 -342 200q-88 182 -88 504zM202.5 713.5q0.5 -154.5 11.5 -249.5t42 -188q63 -190 256 -190q197 0 258 193q53 164 51 389 q0 111 -5 178t-23.5 149t-50 135.5t-90 89t-140.5 35.5t-140.5 -35.5t-90 -89t-50.5 -135.5q-29 -127 -28.5 -281.5zM240 1663q0 31 20.5 53.5t53 22.5t53 -22.5t20.5 -53.5t-20.5 -53.5t-53 -22.5t-53 22.5t-20.5 53.5zM635 1663q0 31 21.5 53.5t53 22.5t53 -22.5 t21.5 -53.5t-21.5 -53.5t-53 -22.5t-53 22.5t-21.5 53.5z" />
<glyph unicode="&#xd7;" d="M119 289l319 319l-319 318l69 67l318 -317l317 317l70 -67l-320 -318l320 -319l-70 -68l-317 318l-318 -318z" />
<glyph unicode="&#xd8;" d="M82 688q0 504 217 627q86 49 213 47q172 0 276 -100l58 102l76 -45l-76 -131q96 -162 96 -500q0 -526 -219 -657q-86 -51 -211 -51q-182 0 -285 114l-61 -110l-74 45l82 145q-92 170 -92 514zM202.5 652q0.5 -216 43.5 -349l481 850q-78 102 -215 102q-82 0 -140.5 -35.5 t-90 -89t-50.5 -135.5q-29 -127 -28.5 -343zM291 205q72 -119 221 -119q197 0 258 193q53 164 52 409.5t-48 372.5z" />
<glyph unicode="&#xd9;" d="M111 387v954h112v-940q0 -315 289 -315q145 0 217 87t72 228v940h112v-954q0 -199 -103 -303t-302 -104t-298 108.5t-99 298.5zM266 1714l39 94l418 -180l-35 -86z" />
<glyph unicode="&#xda;" d="M111 387v954h112v-940q0 -315 289 -315q145 0 217 87t72 228v940h112v-954q0 -199 -103 -303t-302 -104t-298 108.5t-99 298.5zM326 1626l417 180l39 -94l-422 -172z" />
<glyph unicode="&#xdb;" d="M111 387v954h112v-940q0 -315 289 -315q145 0 217 87t72 228v940h112v-954q0 -199 -103 -303t-302 -104t-298 108.5t-99 298.5zM219 1540l258 266h82l258 -266h-119l-180 184l-180 -184h-119z" />
<glyph unicode="&#xdc;" d="M111 387v954h112v-940q0 -315 289 -315q145 0 217 87t72 228v940h112v-954q0 -199 -103 -303t-302 -104t-298 108.5t-99 298.5zM240 1663q0 31 20.5 53.5t53 22.5t53 -22.5t20.5 -53.5t-20.5 -53.5t-53 -22.5t-53 22.5t-20.5 53.5zM635 1663q0 31 20 53q20 23 53 23 t54.5 -22.5t21.5 -53.5t-21.5 -53.5t-54 -22.5t-53 22.5t-20.5 53.5z" />
<glyph unicode="&#xdd;" d="M59 1341h136l313 -645h4l313 645h136l-396 -761v-580h-110v580zM324 1561l370 204l47 -100l-374 -184z" />
<glyph unicode="&#xde;" d="M133 0v1341h113v-235h223q109 0 194 -47t128 -122t61 -166t-3.5 -181t-66.5 -165t-129 -122t-188 -47h-219v-256h-113zM246 358h219q74 0 133 36t90 92.5t45.5 125t1 138t-44.5 126t-89 92.5t-132 36h-223v-646z" />
<glyph unicode="&#xdf;" d="M141 0v961q0 188 92.5 294.5t265.5 106.5t258 -87t85 -212v-172q-125 -12 -202 -28.5t-103.5 -49.5t-26.5 -93.5t38 -96t170 -78.5t181 -98.5t49 -170.5q0 -295 -299 -294q-100 0 -260 53l29 106q154 -55 239 -55q180 0 181 186q0 72 -34 107t-162 75t-185.5 99 t-57.5 162q0 215 234 246l100 12v65q0 221 -241 222q-119 0 -180.5 -78t-61.5 -228v-954h-109z" />
<glyph unicode="&#xe0;" d="M123 276.5q0 141.5 94 219.5q94 80 250 79.5t274 -12.5q0 182 -45 249t-182 67t-324 -66l-30 102q190 70 344 70q203 0 274.5 -90t71.5 -315v-430l16 -156l-104 -10l-21 122q-47 -41 -133 -82.5t-164 -41.5q-150 0 -235.5 76.5t-85.5 218zM238 287q-1 -199 208 -199 q76 0 165 48t130 89v244q-135 10 -258 10t-184 -52t-61 -140zM303 1368l47 100l371 -204l-43 -80z" />
<glyph unicode="&#xe1;" d="M123 276.5q0 141.5 94 219.5q94 80 250 79.5t274 -12.5q0 182 -45 249t-182 67t-324 -66l-30 102q190 70 344 70q203 0 274.5 -90t71.5 -315v-430l16 -156l-104 -10l-21 122q-47 -41 -133 -82.5t-164 -41.5q-150 0 -235.5 76.5t-85.5 218zM238 287q-1 -199 208 -199 q76 0 165 48t130 89v244q-135 10 -258 10t-184 -52t-61 -140zM276 1264l371 204l47 -100l-375 -184z" />
<glyph unicode="&#xe2;" d="M123 276.5q0 141.5 94 219.5q94 80 250 79.5t274 -12.5q0 182 -45 249t-182 67t-324 -66l-30 102q190 70 344 70q203 0 274.5 -90t71.5 -315v-430l16 -156l-104 -10l-21 122q-47 -41 -133 -82.5t-164 -41.5q-150 0 -235.5 76.5t-85.5 218zM203 1204l262 332h94l262 -332 h-119l-190 250l-190 -250h-119zM238 287q-1 -199 208 -199q76 0 165 48t130 89v244q-135 10 -258 10t-184 -52t-61 -140z" />
<glyph unicode="&#xe3;" d="M123 276.5q0 141.5 94 219.5q94 80 250 79.5t274 -12.5q0 182 -45 249t-182 67t-324 -66l-30 102q190 70 344 70q203 0 274.5 -90t71.5 -315v-430l16 -156l-104 -10l-21 122q-47 -41 -133 -82.5t-164 -41.5q-150 0 -235.5 76.5t-85.5 218zM170 1337q117 111 190.5 111 t151.5 -54.5t115 -54.5t125 82l51 -67q-102 -113 -172 -113t-148 55t-123 55.5t-133 -83.5zM238 287q-1 -199 208 -199q76 0 165 48t130 89v244q-135 10 -258 10t-184 -52t-61 -140z" />
<glyph unicode="&#xe4;" d="M123 276.5q0 141.5 94 219.5q94 80 250 79.5t274 -12.5q0 182 -45 249t-182 67t-324 -66l-30 102q190 70 344 70q203 0 274.5 -90t71.5 -315v-430l16 -156l-104 -10l-21 122q-47 -41 -133 -82.5t-164 -41.5q-150 0 -235.5 76.5t-85.5 218zM238 287q-1 -199 208 -199 q76 0 165 48t130 89v244q-135 10 -258 10t-184 -52t-61 -140zM240 1325q0 31 20.5 53.5t53 22.5t53 -22.5t20.5 -53.5t-20.5 -53.5t-53 -22.5t-53 22.5t-20.5 53.5zM635 1325q0 31 20 53q20 23 53 23t54.5 -22.5t21.5 -53.5t-21.5 -53.5t-54 -22.5t-53 22.5t-20.5 53.5z" />
<glyph unicode="&#xe5;" d="M123 276.5q0 141.5 93 220t250 78.5t275 -12q0 182 -45 249t-182 67t-324 -66l-30 102q190 70 344 70q203 0 274.5 -90t71.5 -315v-430l16 -156l-104 -10l-21 122q-47 -41 -133 -82.5t-164 -41.5q-150 0 -235.5 76.5t-85.5 218zM238 287q-1 -199 208 -199q76 0 165 48 t130 89v244q-133 10 -257 10t-185 -52t-61 -140zM297 1287q0 91 58.5 143.5t155.5 52.5t155.5 -52.5t58.5 -143.5t-58.5 -143t-155.5 -52t-155.5 52t-58.5 143zM383 1286q0 -55 34 -86t93 -31t93 31t34 86q0 117 -127 117t-127 -117z" />
<glyph unicode="&#xe6;" d="M39 269q0 132 74.5 207t205.5 75h134q0 207 -11.5 234.5t-23.5 48.5q-20 33 -100 32.5t-212 -63.5l-36 98q147 72 246.5 72t145.5 -27.5t68 -95.5q55 133 197.5 133t204 -103.5t61.5 -328.5l-6 -107h-426q20 -272 103 -333q37 -29 79 -27q68 2 175 35l36 10l31 -98 q-133 -51 -222 -51t-144.5 33.5t-96.5 109.5q-78 -143 -246 -143q-109 0 -173 78.5t-64 210.5zM154 274q0 -190 133 -190q82 2 139 68q13 16 27 36v258h-134q-78 0 -121.5 -45t-43.5 -127zM561 547h316q0 168 -32 249t-120 81t-124 -78t-40 -252z" />
<glyph unicode="&#xe7;" d="M166 489.5q0 239.5 104.5 367.5t307.5 128q135 0 268 -43v-287h-111v203q-100 23 -160 23q-147 0 -219.5 -104.5t-72.5 -289t73.5 -292t218.5 -107.5q92 0 256 57l31 -102q-162 -61 -284 -61q-201 0 -306.5 134t-105.5 373.5zM424 -481l10 88q41 -10 96 -10 q109 0 109 100q0 96 -109 96q-37 0 -88 -10l-12 84q66 16 137.5 16t123.5 -48t52 -139t-52 -141.5t-138 -50.5q-47 0 -129 15z" />
<glyph unicode="&#xe8;" d="M137 485.5q0 235.5 97.5 367.5t284 132t277.5 -123t91 -327l-6 -103h-627q10 -154 82 -249t197.5 -95t295.5 59l31 -102q-166 -63 -311 -63q-201 0 -306.5 134t-105.5 369.5zM254 535h516q0 346 -244 346q-258 0 -272 -346zM303 1368l47 100l371 -204l-43 -80z" />
<glyph unicode="&#xe9;" d="M137 485.5q0 235.5 97.5 367.5t284 132t277.5 -123t91 -327l-6 -103h-627q10 -154 82 -249t197.5 -95t295.5 59l31 -102q-166 -63 -311 -63q-201 0 -306.5 134t-105.5 369.5zM254 535h516q0 346 -244 346q-258 0 -272 -346zM293 1264l371 204l47 -100l-375 -184z" />
<glyph unicode="&#xea;" d="M137 485.5q0 235.5 97.5 367.5t284 132t277.5 -123t91 -327l-6 -103h-627q10 -154 82 -249t197.5 -95t295.5 59l31 -102q-166 -63 -311 -63q-201 0 -306.5 134t-105.5 369.5zM203 1204l262 332h94l262 -332h-119l-190 250l-190 -250h-119zM254 535h516q0 346 -244 346 q-258 0 -272 -346z" />
<glyph unicode="&#xeb;" d="M137 485.5q0 235.5 97.5 367.5t284 132t277.5 -123t91 -327l-6 -103h-627q10 -154 82 -249t197.5 -95t295.5 59l31 -102q-166 -63 -311 -63q-201 0 -306.5 134t-105.5 369.5zM240 1325q0 31 20.5 53.5t53 22.5t53 -22.5t20.5 -53.5t-20.5 -53.5t-53 -22.5t-53 22.5 t-20.5 53.5zM254 535h516q0 346 -244 346q-258 0 -272 -346zM635 1325q0 31 21.5 53.5t53 22.5t53 -22.5t21.5 -53.5t-21.5 -53.5t-53 -22.5t-53 22.5t-21.5 53.5z" />
<glyph unicode="&#xec;" d="M236 0v102h253v768h-237v103h346v-871h238v-102h-600zM315 1264l371 204l47 -100l-375 -184z" />
<glyph unicode="&#xed;" d="M236 0v102h253v768h-237v103h346v-871h238v-102h-600zM303 1264l371 204l47 -100l-375 -184z" />
<glyph unicode="&#xee;" d="M203 1204l262 332h94l262 -332h-119l-190 250l-190 -250h-119zM236 0v102h253v768h-237v103h346v-871h238v-102h-600z" />
<glyph unicode="&#xef;" d="M236 0v102h253v768h-237v103h346v-871h238v-102h-600zM260 1325q0 31 20.5 53.5t53.5 22.5t53.5 -22.5t20.5 -53.5t-20.5 -53.5t-53.5 -22.5t-53.5 22.5t-20.5 53.5zM635 1325q0 31 20 53q20 23 53 23t54.5 -22.5t21.5 -53.5t-21.5 -53.5t-54 -22.5t-53 22.5t-20.5 53.5z " />
<glyph unicode="&#xf0;" d="M121 483.5q0 501.5 391 501.5q137 0 236 -67q-54 161 -201 288l-205 -143l-51 74l180 127q-57 41 -184 110l47 90q119 -57 227 -139l189 133l51 -74l-168 -118q145 -131 207.5 -304.5t62.5 -408.5q8 -295 -88 -433t-303 -138q-391 0 -391 501.5zM238 483.5 q0 -395.5 274 -395.5q143 0 207.5 97.5t69 302t-58 298t-218.5 93.5q-274 0 -274 -395.5z" />
<glyph unicode="&#xf1;" d="M160 0v973h104l4 -82q199 94 330 94t206 -90t75 -246v-649h-109v649q0 100 -49 166q-49 63 -147.5 63.5t-305.5 -90.5v-788h-108zM197 1337q115 111 188.5 111t151 -54.5t116.5 -54.5t125 82l51 -67q-104 -113 -173.5 -113t-145.5 55.5t-121 55.5t-135 -84z" />
<glyph unicode="&#xf2;" d="M121 483.5q0 501.5 391 501.5t391 -501.5t-391 -501.5t-391 501.5zM238 483.5q0 -395.5 274 -395.5t274 395.5t-274 395.5t-274 -395.5zM303 1368l47 100l371 -204l-43 -80z" />
<glyph unicode="&#xf3;" d="M121 483.5q0 501.5 391 501.5t391 -501.5t-391 -501.5t-391 501.5zM238 483.5q0 -395.5 274 -395.5t274 395.5t-274 395.5t-274 -395.5zM309 1264l371 204l47 -100l-375 -184z" />
<glyph unicode="&#xf4;" d="M121 483.5q0 501.5 391 501.5t391 -501.5t-391 -501.5t-391 501.5zM203 1204l262 332h94l262 -332h-119l-190 250l-190 -250h-119zM238 483.5q0 -395.5 274 -395.5t274 395.5t-274 395.5t-274 -395.5z" />
<glyph unicode="&#xf5;" d="M121 483.5q0 501.5 391 501.5t391 -501.5t-391 -501.5t-391 501.5zM199 1337q117 111 190.5 111t151 -54.5t114.5 -54.5t125 82l51 -67q-102 -113 -171.5 -113t-147.5 55t-123 55.5t-133 -83.5zM238 483.5q0 -395.5 274 -395.5t274 395.5t-274 395.5t-274 -395.5z" />
<glyph unicode="&#xf6;" d="M121 483.5q0 501.5 391 501.5t391 -501.5t-391 -501.5t-391 501.5zM238 483.5q0 -395.5 274 -395.5t274 395.5t-274 395.5t-274 -395.5zM240 1325q0 31 20.5 53.5t53 22.5t53 -22.5t20.5 -53.5t-20.5 -53.5t-53 -22.5t-53 22.5t-20.5 53.5zM635 1325q0 31 20 53 q20 23 53 23t54.5 -22.5t21.5 -53.5t-21.5 -53.5t-54 -22.5t-53 22.5t-20.5 53.5z" />
<glyph unicode="&#xf7;" d="M72 535v94h880v-94h-880zM422 280.5q0 92.5 84 92.5t84 -92.5t-84 -92.5t-84 92.5zM422 870.5q0 92.5 84 92.5t84 -92.5t-84 -92.5t-84 92.5z" />
<glyph unicode="&#xf8;" d="M121 483q0 502 391 502q119 0 201 -47l67 117l88 -54l-73 -131q109 -123 108 -387q0 -502 -391 -501q-115 0 -199 45l-65 -115l-86 53l71 125q-113 125 -112 393zM238 483q0 -188 57 -282l362 639q-61 39 -145 39q-274 -1 -274 -396zM369 125q55 -37 143 -37 q274 0 274 395q0 182 -55 279z" />
<glyph unicode="&#xf9;" d="M152 317v656h108v-656q0 -100 48 -164.5t146.5 -64.5t307.5 102v783h108v-973h-104l-4 84q-197 -102 -328 -102t-206.5 90t-75.5 245zM303 1368l47 100l371 -204l-43 -80z" />
<glyph unicode="&#xfa;" d="M152 317v656h108v-656q0 -100 48 -164.5t146.5 -64.5t307.5 102v783h108v-973h-104l-4 84q-197 -102 -328 -102t-206.5 90t-75.5 245zM322 1264l370 204l47 -100l-374 -184z" />
<glyph unicode="&#xfb;" d="M152 317v656h108v-656q0 -100 48 -164.5t146.5 -64.5t307.5 102v783h108v-973h-104l-4 84q-197 -102 -328 -102t-206.5 90t-75.5 245zM203 1204l262 332h94l262 -332h-119l-190 250l-190 -250h-119z" />
<glyph unicode="&#xfc;" d="M152 317v656h108v-656q0 -100 48 -164.5t146.5 -64.5t307.5 102v783h108v-973h-104l-4 84q-197 -102 -328 -102t-206.5 90t-75.5 245zM240 1325q0 31 20.5 53.5t53 22.5t53 -22.5t20.5 -53.5t-20.5 -53.5t-53 -22.5t-53 22.5t-20.5 53.5zM635 1325q0 31 20 53 q20 23 53 23t54.5 -22.5t21.5 -53.5t-21.5 -53.5t-54 -22.5t-53 22.5t-20.5 53.5z" />
<glyph unicode="&#xfd;" d="M109 973h122l289 -828h17l258 828h123l-377 -1139q-53 -162 -111.5 -207t-236.5 -49v105q115 2 153.5 32.5t71.5 128.5l47 142zM303 1264l371 204l47 -100l-375 -184z" />
<glyph unicode="&#xfe;" d="M158 -393v1734h102v-464q150 109 285 108q182 0 281.5 -133t99.5 -367.5t-109.5 -368.5t-306.5 -134q-115 0 -244 55v-430h-108zM266 147q43 -20 118 -40.5t122 -20.5q145 0 227 108.5t82 289t-71.5 289t-200.5 108.5t-277 -119v-615z" />
<glyph unicode="&#xff;" d="M109 973h122l289 -828h17l258 828h123l-377 -1139q-53 -162 -111.5 -207t-236.5 -49v105q115 2 153.5 32.5t71.5 128.5l47 142zM240 1325q0 31 20.5 53.5t53 22.5t53 -22.5t20.5 -53.5t-20.5 -53.5t-53 -22.5t-53 22.5t-20.5 53.5zM635 1325q0 31 20 53q20 23 53 23 t54.5 -22.5t21.5 -53.5t-21.5 -53.5t-54 -22.5t-53 22.5t-20.5 53.5z" />
<glyph unicode="&#x152;" d="M78 688q0 481 233 606q90 47 217 47h451v-98h-315v-512h260v-98h-260v-535h321v-98h-457q-451 0 -450 688zM199 684q0 -123 14 -221t49 -184q72 -178 266 -179h23v1139q-16 2 -23 2q-201 0 -270 -172q-57 -143 -59 -385z" />
<glyph unicode="&#x153;" d="M35 483q0 258 56 380t220 122t207 -197q4 43 29 95q49 102 185 102t198.5 -109.5t62.5 -328.5l-6 -103h-422q20 -356 205 -356q66 2 156 35l28 10l31 -102q-123 -49 -207 -49t-138 30.5t-79 77.5q-37 74 -41 121q0 -47 -24 -109q-49 -123 -199 -122.5t-206 123t-56 380.5 zM152 484.5q0 -105.5 4 -169t19 -121t47 -83t81 -25.5t82 25q29 27 45 84q25 88 25 241.5t-4.5 217t-19.5 119.5t-46 81t-82 25t-82 -25t-46 -81t-19 -119.5t-4 -169zM565 547h312q0 170 -32 251t-118 81q-61 0 -84 -23l-33 -37q-12 -12 -19 -43t-12.5 -47t-7.5 -58 t-3 -58.5t-3 -65.5z" />
<glyph unicode="&#x178;" d="M59 1341h142l311 -645h4l315 645h130l-392 -761v-580h-112v580zM240 1663q0 31 20.5 53.5t53 22.5t53 -22.5t20.5 -53.5t-20.5 -53.5t-53 -22.5t-53 22.5t-20.5 53.5zM635 1663q0 31 20 53q20 23 53 23t54.5 -22.5t21.5 -53.5t-21.5 -53.5t-54 -22.5t-53 22.5t-20.5 53.5 z" />
<glyph unicode="&#x2000;" horiz-adv-x="936" />
<glyph unicode="&#x2001;" horiz-adv-x="1872" />
<glyph unicode="&#x2002;" horiz-adv-x="936" />
<glyph unicode="&#x2003;" horiz-adv-x="1872" />
<glyph unicode="&#x2004;" horiz-adv-x="624" />
<glyph unicode="&#x2005;" horiz-adv-x="468" />
<glyph unicode="&#x2006;" horiz-adv-x="312" />
<glyph unicode="&#x2007;" horiz-adv-x="312" />
<glyph unicode="&#x2008;" horiz-adv-x="234" />
<glyph unicode="&#x2009;" horiz-adv-x="374" />
<glyph unicode="&#x200a;" horiz-adv-x="104" />
<glyph unicode="&#x2010;" d="M225 436v111h588v-111h-588z" />
<glyph unicode="&#x2011;" d="M225 436v111h588v-111h-588z" />
<glyph unicode="&#x2012;" d="M225 436v111h588v-111h-588z" />
<glyph unicode="&#x2013;" d="M143 535v90h736v-90h-736z" />
<glyph unicode="&#x2014;" d="M0 535v90h1024v-90h-1024z" />
<glyph unicode="&#x2018;" d="M385 965l164 411l86 -22l-119 -424z" />
<glyph unicode="&#x2019;" d="M387 967l119 424l131 -35l-164 -412z" />
<glyph unicode="&#x201c;" d="M213 991l164 412l86 -23l-119 -424zM506 954l164 412l86 -23l-119 -423z" />
<glyph unicode="&#x201d;" d="M240 973l118 424l131 -35l-163 -412zM532 936l119 424l131 -35l-164 -412z" />
<glyph unicode="&#x2022;" d="M451 547v131h118v-131h-118z" />
<glyph unicode="&#x2026;" d="M106 0v166h142v-166h-142zM420 0v166h141v-166h-141zM735 0v166h142v-166h-142z" />
<glyph unicode="&#x202f;" horiz-adv-x="374" />
<glyph unicode="&#x2039;" d="M291 426v82l403 346v-133l-297 -258l297 -252v-131z" />
<glyph unicode="&#x203a;" d="M291 80v131l297 252l-297 258v133l403 -346v-82z" />
<glyph unicode="&#x205f;" horiz-adv-x="468" />
<glyph unicode="&#x20ac;" d="M31 494v90h90v67q0 57 2 86h-92v90h98q25 252 135 371q109 119 301.5 119t341.5 -51l-30 -105q-160 49 -303.5 49t-223.5 -92t-100 -291h495v-90h-501q-2 -29 -2 -86v-67h503v-90h-497q23 -215 107.5 -310.5t222 -95.5t315.5 55l27 -104q-170 -57 -354.5 -57t-299 118.5 t-139.5 393.5h-96z" />
<glyph unicode="&#x2122;" d="M29 1128v80h368v-80h-137v-528h-88v528h-143zM479 600v608h72l160 -383h4l170 383h71v-608h-77l2 401h-9l-135 -286h-49l-125 286h-8l2 -401h-78z" />
<glyph unicode="&#x25fc;" horiz-adv-x="972" d="M0 0v973h973v-973h-973z" />
</font>
</defs>
</svg>
