<?xml version="1.0" standalone="no"?>
<!DOCTYPE svg PUBLIC "-//W3C//DTD SVG 1.1//EN" "http://www.w3.org/Graphics/SVG/1.1/DTD/svg11.dtd" >
<svg xmlns="http://www.w3.org/2000/svg" xmlns:xlink="http://www.w3.org/1999/xlink" version="1.1">
<metadata></metadata>
<defs>
<font id="zonahairline" horiz-adv-x="1366" >
<font-face units-per-em="2048" ascent="1638" descent="-410" />
<missing-glyph horiz-adv-x="659" />
<glyph horiz-adv-x="0" />
<glyph horiz-adv-x="682" />
<glyph horiz-adv-x="0" />
<glyph horiz-adv-x="0" />
<glyph unicode=" "  horiz-adv-x="659" />
<glyph unicode="&#x09;" horiz-adv-x="659" />
<glyph unicode="&#xa0;" horiz-adv-x="659" />
<glyph unicode="!" horiz-adv-x="354" d="M133 41q0 20 13.5 33.5t33.5 13.5t33.5 -13.5t13.5 -33.5t-13.5 -33.5t-33.5 -13.5t-33.5 13.5t-13.5 33.5zM154 1442h49l-13 -1094h-24z" />
<glyph unicode="&#x22;" horiz-adv-x="495" d="M74 940l30 494h58l-60 -494h-28zM326 940l30 494h58l-60 -494h-28z" />
<glyph unicode="#" horiz-adv-x="1363" d="M61 436v43h293l86 506h-311v43h320l61 352h45l-61 -352h450l62 352h45l-62 -352h316v-43h-322l-88 -506h342v-43h-350l-72 -418h-45l72 418h-451l-72 -418h-45l72 418h-285zM399 479h451l86 506h-449z" />
<glyph unicode="$" horiz-adv-x="1284" d="M119 117l22 45q156 -75 248 -100t227 -25v672q-90 22 -154 42.5t-131 52.5t-108 69t-67.5 91t-26.5 121q0 164 131.5 267.5t355.5 103.5v84h52v-86q118 -8 239.5 -36.5t200.5 -71.5l-25 -46q-78 40 -190.5 67.5t-224.5 35.5v-655q66 -16 113.5 -29.5t103 -33.5t94.5 -40 t77 -49t61.5 -62t37.5 -76t14 -93q0 -176 -136.5 -277.5t-364.5 -101.5v-131h-52v131q-143 0 -242 26t-255 105zM180 1085q0 -46 15 -85t46 -69.5t66.5 -54t90.5 -45.5t102 -37t116 -34v645q-201 0 -318.5 -89t-117.5 -231zM668 37q205 0 327.5 88t122.5 240q0 43 -13 80 t-33.5 65t-55.5 53t-69.5 42.5t-85 35t-92.5 29.5t-101 26v-659z" />
<glyph unicode="%" horiz-adv-x="1841" d="M100 1057q0 182 102 287.5t255 105.5t254.5 -105.5t101.5 -287.5q0 -181 -101.5 -287t-254.5 -106t-255 106t-102 287zM145 1057q0 -160 89.5 -254t222.5 -94t222 94t89 254q0 161 -88.5 254.5t-222.5 93.5t-223 -93.5t-89 -254.5zM403 0l990 1436h51l-989 -1436h-52z M1028 387q0 182 101.5 287.5t254.5 105.5t255 -105.5t102 -287.5q0 -181 -102 -287t-255 -106t-254.5 106t-101.5 287zM1073 387q0 -160 89 -254t222 -94t222.5 94t89.5 254q0 161 -89 254.5t-223 93.5t-222.5 -93.5t-88.5 -254.5z" />
<glyph unicode="&#x26;" horiz-adv-x="1380" d="M115 340q0 124 78 218t260 165q-110 110 -160.5 197t-50.5 196q0 129 94 227.5t242 98.5q111 0 194 -44t123.5 -112t40.5 -149q0 -51 -8.5 -93.5t-34 -90.5t-68 -89t-114.5 -82.5t-170 -76.5l463 -449q119 119 256 333q7 10 10 15l41 -24l-20 -31q-20 -31 -25.5 -40 t-27 -40.5t-34 -48t-35 -47.5t-41 -52.5t-42.5 -48.5t-48 -51l201 -190l-33 -33l-200 192q-208 -194 -412 -194q-100 0 -181.5 19.5t-136 52.5t-91.5 77.5t-53.5 93t-16.5 101.5zM166 340q0 -57 24 -108t73 -93.5t134.5 -68t196.5 -25.5q183 0 377 178l-482 463 q-172 -66 -247.5 -152t-75.5 -194zM291 1116q0 -102 50 -183t161 -192q98 33 169 72.5t112 77t65 81.5t31.5 81.5t7.5 83.5q0 106 -83 181t-226 75q-125 0 -206 -84t-81 -193z" />
<glyph unicode="'" horiz-adv-x="333" d="M123 940l31 494h57l-59 -494h-29z" />
<glyph unicode="(" horiz-adv-x="765" d="M119 627q0 276 150 492.5t419 355.5l21 -43q-256 -132 -396.5 -337t-140.5 -468q0 -264 140 -468.5t397 -336.5l-21 -43q-269 139 -419 355.5t-150 492.5z" />
<glyph unicode=")" horiz-adv-x="765" d="M57 -178q257 132 397 336.5t140 468.5q0 263 -140.5 468t-396.5 337l21 43q269 -139 419 -355.5t150 -492.5t-150 -492.5t-419 -355.5z" />
<glyph unicode="*" horiz-adv-x="831" d="M104 1223l27 45l275 -174l-13 325h51l-12 -325l275 176l24 -47l-287 -152l289 -149l-26 -45l-275 172l12 -324h-51l13 324l-275 -175l-25 48l287 149z" />
<glyph unicode="+" horiz-adv-x="1310" d="M154 739v41h483v484h41v-484h483v-41h-483v-483h-41v483h-483z" />
<glyph unicode="," horiz-adv-x="284" d="M-16 -223q57 10 104 68.5t47 148.5q-20 0 -33.5 13.5t-13.5 33.5t12.5 33.5t30.5 13.5q51 0 51 -68q0 -125 -57.5 -196t-130.5 -76z" />
<glyph unicode="-" horiz-adv-x="835" d="M102 657v43h631v-43h-631z" />
<glyph unicode="." horiz-adv-x="260" d="M80 41q0 20 13.5 33.5t33.5 13.5t33.5 -13.5t13.5 -33.5t-13.5 -33.5t-33.5 -13.5t-33.5 13.5t-13.5 33.5z" />
<glyph unicode="/" horiz-adv-x="856" d="M-51 -262l907 1896h51l-907 -1896h-51z" />
<glyph unicode="0" horiz-adv-x="1495" d="M100 721q0 168 51.5 306.5t140 229.5t206.5 141t252 50q135 0 252.5 -49.5t206 -141t139.5 -230t51 -306.5t-51 -306.5t-139.5 -230t-206 -141t-252.5 -49.5q-134 0 -252 50t-206.5 141t-140 229.5t-51.5 306.5zM150 721q0 -158 47.5 -287.5t129 -214t190.5 -130.5 t233 -46q125 0 234 46t190.5 130.5t128.5 214t47 287.5t-47 287.5t-128.5 214t-190.5 130.5t-234 46q-124 0 -233 -46t-190.5 -130.5t-129 -214t-47.5 -287.5z" />
<glyph unicode="1" horiz-adv-x="768" d="M80 1362l366 82h52v-1444h-52v1395l-356 -80z" />
<glyph unicode="2" horiz-adv-x="1277" d="M106 889v33q0 148 72 270t193 190t262 68q139 0 260 -69t193.5 -191.5t72.5 -269.5q0 -98 -28 -182t-75.5 -145t-114.5 -115.5t-139 -94.5t-156 -82.5t-159 -77t-154 -81t-136 -93.5h966v-49h-1054v35q58 61 148 118t180.5 101t189 91.5t183 101.5t153 118.5t108 155 t39.5 199.5q0 133 -66 244t-175.5 174t-235.5 63q-128 0 -237 -61.5t-174.5 -172t-65.5 -245.5v-33h-50z" />
<glyph unicode="3" horiz-adv-x="1251" d="M125 80l20 45q110 -48 211 -66t246 -18q236 0 376 107t140 296q0 72 -30.5 138t-88.5 119t-152.5 84.5t-213.5 31.5h-27l-10 21l453 557h-902v49h981v-33l-450 -553q144 0 257 -57.5t172.5 -151.5t59.5 -205q0 -211 -154 -331.5t-411 -120.5q-155 0 -259 18t-218 70z" />
<glyph unicode="4" horiz-adv-x="1314" d="M92 453l858 991h35v-975h242v-51h-242v-418h-51v418h-828zM170 469h764v881z" />
<glyph unicode="5" horiz-adv-x="1255" d="M123 68l16 47q106 -42 212.5 -58t256.5 -16q236 0 376 107t140 296q0 195 -123.5 312.5t-336.5 117.5q-96 0 -223 -27.5t-222 -64.5l-33 23v639h920v-49h-870v-551q81 30 202 55t226 25q235 0 372.5 -133.5t137.5 -346.5q0 -211 -154.5 -331.5t-411.5 -120.5 q-156 0 -265 16t-220 60z" />
<glyph unicode="6" horiz-adv-x="1361" d="M129 633q0 174 32 314t87 232.5t132 154.5t163.5 89t185.5 27q137 0 241 -37.5t210 -107.5l-27 -43q-101 66 -199 102.5t-225 36.5q-75 0 -142 -18t-130 -55.5t-113 -99.5t-87.5 -145t-58 -198t-20.5 -252q0 -33 2 -49q18 86 72 153.5t129 107.5t158.5 60.5t167.5 20.5 q154 0 278.5 -51t201.5 -156t77 -248q0 -141 -78 -251t-209 -168t-291 -58q-113 0 -215.5 48t-177.5 131t-119.5 203t-44.5 257zM207 479q0 -72 39.5 -150t103.5 -141t153.5 -104t182.5 -41q147 0 267 53t190.5 151.5t70.5 223.5q0 127 -70 220.5t-183.5 139.5t-253.5 46 q-131 0 -243 -46t-184.5 -138.5t-72.5 -213.5z" />
<glyph unicode="7" horiz-adv-x="1165" d="M104 1395v49h990v-35l-729 -1409h-56l721 1395h-926z" />
<glyph unicode="8" horiz-adv-x="1302" d="M102 403q0 153 99.5 256.5t257.5 133.5q-120 22 -196.5 107t-76.5 206q0 115 65 194t169 114.5t237 35.5t237 -35.5t169 -114.5t65 -194q0 -121 -76 -206t-196 -107q158 -30 257 -133.5t99 -256.5q0 -132 -76 -226t-199.5 -138.5t-279.5 -44.5t-279.5 44.5t-199.5 138.5 t-76 226zM152 403q0 -116 69 -199t181 -122t255 -39t255.5 39t181.5 122t69 199q0 170 -138 265.5t-368 95.5t-367.5 -95.5t-137.5 -265.5zM236 1106q0 -139 114.5 -216t306.5 -77t307 77t115 216q0 98 -59 166t-152 98.5t-211 30.5t-211 -30.5t-151.5 -98.5t-58.5 -166z " />
<glyph unicode="9" horiz-adv-x="1357" d="M123 973q0 114 44 205.5t120.5 150t177 90t215.5 31.5q202 0 357.5 -136.5t187.5 -346.5q12 -94 12 -156q0 -175 -30 -314t-83.5 -232.5t-129.5 -155t-164.5 -88.5t-192.5 -27q-137 0 -241 37.5t-210 107.5l27 43q101 -66 199 -102.5t225 -36.5q96 0 177 25.5t151 83 t119 145.5t76.5 218.5t27.5 295.5q0 8 -1 24.5t-1 24.5q-21 -106 -100 -185.5t-185 -118t-221 -38.5q-154 0 -278.5 51t-201.5 156t-77 248zM172 973q0 -127 70 -220.5t184 -139.5t254 -46q125 0 233 46t177 138.5t69 213.5q0 81 -42.5 161.5t-110 140.5t-154.5 97t-172 37 q-143 0 -256.5 -48t-182.5 -146.5t-69 -233.5z" />
<glyph unicode=":" horiz-adv-x="368" d="M129 41q0 20 13.5 33.5t33.5 13.5t33.5 -13.5t13.5 -33.5t-13.5 -33.5t-33.5 -13.5t-33.5 13.5t-13.5 33.5zM129 1049q0 20 13.5 33.5t33.5 13.5t33.5 -13.5t13.5 -33.5t-13.5 -34t-33.5 -14t-33.5 14t-13.5 34z" />
<glyph unicode=";" horiz-adv-x="362" d="M27 -223q57 10 104 68.5t47 148.5q-20 0 -33.5 13.5t-13.5 33.5t12.5 33.5t30.5 13.5q51 0 51 -68q0 -121 -58.5 -194t-129.5 -78zM129 1049q0 20 13.5 33.5t33.5 13.5t33.5 -13.5t13.5 -33.5t-13.5 -34t-33.5 -14t-33.5 14t-13.5 34z" />
<glyph unicode="&#x3c;" horiz-adv-x="1236" d="M113 698v31l977 479v-47l-914 -448l914 -447v-47z" />
<glyph unicode="=" horiz-adv-x="1267" d="M150 365v43h964v-43h-964zM150 963v43h964v-43h-964z" />
<glyph unicode="&#x3e;" horiz-adv-x="1239" d="M168 219v47l911 447l-911 448v47l977 -479v-31z" />
<glyph unicode="?" horiz-adv-x="1105" d="M14 1348q113 61 210 81.5t245 20.5q242 0 387 -121.5t145 -335.5q0 -169 -134 -274t-367 -105l-8 -282h-39l-7 311l13 16h14q241 0 362 94t121 240q0 193 -133 302.5t-354 109.5q-142 0 -235.5 -19.5t-198.5 -78.5zM420 41q0 20 13.5 33.5t33.5 13.5t33.5 -13.5 t13.5 -33.5t-13.5 -33.5t-33.5 -13.5t-33.5 13.5t-13.5 33.5z" />
<glyph unicode="@" horiz-adv-x="1976" d="M94 584q0 183 71.5 350t192 287t287 191t350.5 71t350.5 -70.5t286.5 -190.5t191 -285.5t71 -348.5q0 -122 -57 -233.5t-158.5 -181t-218.5 -69.5q-111 0 -175 51t-64 146q0 38 8 74q-68 -110 -171.5 -174t-219.5 -64q-166 0 -276.5 121.5t-110.5 300.5q0 141 67 263.5 t177.5 193.5t234.5 71q127 0 226 -73.5t138 -192.5l35 223l51 -8q-110 -697 -110 -725q0 -49 18.5 -83.5t49.5 -51t60.5 -23t61.5 -6.5q86 0 161 39.5t124.5 103t77.5 141.5t28 157q0 231 -115.5 427.5t-312.5 310.5t-428 114q-174 0 -333 -68.5t-274 -183.5t-183 -273 t-68 -331q0 -174 68 -333t183 -274t274 -183t333 -68q159 0 303 54t258 154l29 -32q-120 -106 -271 -162.5t-319 -56.5q-183 0 -350 71.5t-287.5 192t-192 287.5t-71.5 350zM500 559q0 -158 96.5 -265.5t241.5 -107.5q82 0 161 40.5t138 107.5t95 159.5t36 192.5 q0 149 -97.5 250.5t-240.5 101.5q-110 0 -209.5 -64t-160 -175t-60.5 -240z" />
<glyph unicode="A" horiz-adv-x="1443" d="M53 0l645 1444h47l646 -1444h-54l-192 432h-848l-191 -432h-53zM317 477h809l-405 914z" />
<glyph unicode="B" horiz-adv-x="1419" d="M201 0v1444h499q138 0 233 -81.5t95 -203.5q0 -70 -26 -133t-82 -102q92 -10 167.5 -52.5t123.5 -107t74 -143.5t26 -164q0 -91 -28.5 -172.5t-82 -145.5t-138 -101.5t-188.5 -37.5h-673zM250 49h624q92 0 166.5 33.5t121.5 90.5t72.5 130t25.5 154t-25.5 155.5 t-72.5 134t-122 95t-166 35.5h-624v-828zM250 926h541q86 0 136 70t50 163q0 102 -80 169t-197 67h-450v-469z" />
<glyph unicode="C" horiz-adv-x="1579" d="M123 721q0 197 101 365t274.5 266t378.5 98q176 0 328 -72.5t259 -199.5l-39 -35q-101 120 -242.5 188t-305.5 68q-190 0 -352 -91t-256.5 -247.5t-94.5 -339.5q0 -182 94.5 -338t256.5 -247t352 -91q164 0 306 67.5t242 186.5l39 -35q-106 -127 -258 -198.5t-329 -71.5 q-205 0 -378.5 97.5t-274.5 265t-101 364.5z" />
<glyph unicode="D" horiz-adv-x="1478" d="M201 0v1444h428q197 0 364.5 -96.5t265 -263t97.5 -363.5q0 -190 -90.5 -356t-248 -265.5t-341.5 -99.5h-475zM250 49h422q128 0 245.5 55.5t202 147.5t135 215t50.5 254q0 182 -91 337.5t-247 246t-338 90.5h-379v-1346z" />
<glyph unicode="E" horiz-adv-x="1292" d="M201 0v1444h936v-49h-887v-670h760v-49h-760v-627h930v-49h-979z" />
<glyph unicode="F" horiz-adv-x="1261" d="M201 0v1444h952v-49h-903v-764h790v-49h-790v-582h-49z" />
<glyph unicode="G" horiz-adv-x="1646" d="M123 721q0 148 60 282.5t161.5 232t242 155t294.5 57.5q348 0 569 -205l-35 -39q-209 193 -534 193q-191 0 -354 -91t-258 -247t-95 -338t95 -338t258 -247t354 -91q333 0 573 184v385h-610v50h659v-461q-121 -99 -281.5 -154t-340.5 -55q-154 0 -294.5 57.5t-242 155 t-161.5 232t-60 282.5z" />
<glyph unicode="H" horiz-adv-x="1480" d="M201 0v1444h49v-776h981v776h49v-1444h-49v618h-981v-618h-49z" />
<glyph unicode="I" horiz-adv-x="452" d="M201 0v1444h51v-1444h-51z" />
<glyph unicode="J" horiz-adv-x="1251" d="M72 406l49 6q29 -158 154 -262.5t290 -104.5q227 0 343 148t116 397v854h49v-854q0 -274 -128.5 -435t-379.5 -161q-183 0 -323.5 117t-169.5 295z" />
<glyph unicode="K" horiz-adv-x="1392" d="M201 0v1444h49v-1016l948 1016h68l-648 -694l666 -750h-72l-630 713l-332 -357v-356h-49z" />
<glyph unicode="L" horiz-adv-x="1206" d="M201 0v1444h49v-1395h862v-49h-911z" />
<glyph unicode="M" horiz-adv-x="1789" d="M201 0v1444h39l655 -1088l655 1088h39v-1444h-49v1329l-645 -1071l-645 1071v-1329h-49z" />
<glyph unicode="N" horiz-adv-x="1570" d="M201 0v1444h39l1081 -1352v1352h49v-1444h-39l-1081 1352v-1352h-49z" />
<glyph unicode="O" horiz-adv-x="1761" d="M123 721q0 148 60 283t161.5 232.5t242 155.5t294.5 58q206 0 380.5 -98t275.5 -266t101 -365t-101 -364.5t-275.5 -265t-380.5 -97.5q-154 0 -294.5 57.5t-242 155t-161.5 232t-60 282.5zM174 721q0 -182 95 -338t258 -247t354 -91q144 0 275 54t225 144.5t150 215.5 t56 262t-56 262.5t-150 216.5t-225 145t-275 54q-191 0 -354 -91t-258 -247.5t-95 -339.5z" />
<glyph unicode="P" horiz-adv-x="1337" d="M201 0v1444h544q133 0 231.5 -37t154 -102t82 -143t26.5 -171q0 -125 -40 -218.5t-113.5 -150t-171 -83.5t-220.5 -27h-444v-512h-49zM250 561h444q110 0 198.5 24.5t155.5 75t103.5 134.5t36.5 196q0 83 -24 153t-74.5 127.5t-138.5 90.5t-206 33h-495v-834z" />
<glyph unicode="Q" horiz-adv-x="1761" d="M123 721q0 148 60 283t161.5 232.5t242 155.5t294.5 58q206 0 380.5 -98t275.5 -266t101 -365q0 -167 -72.5 -312t-199.5 -247l158 -131l-31 -37l-166 139q-197 -139 -446 -139q-154 0 -294.5 57.5t-242 155t-161.5 232t-60 282.5zM174 721q0 -182 95 -338t258 -247 t354 -91q228 0 405 123l-123 104l31 37l133 -112q121 94 190.5 230.5t69.5 293.5q0 137 -56 262.5t-150 216.5t-225 145t-275 54q-191 0 -354 -91t-258 -247.5t-95 -339.5z" />
<glyph unicode="R" horiz-adv-x="1361" d="M201 0v1444h544q133 0 231.5 -37t154 -102t82 -143t26.5 -171q0 -194 -93 -308.5t-261 -152.5l393 -530h-64l-383 520q-57 -8 -137 -8h-444v-512h-49zM250 561h444q110 0 198.5 24.5t155.5 75t103.5 134.5t36.5 196q0 83 -24 153t-74.5 127.5t-138.5 90.5t-206 33h-495 v-834z" />
<glyph unicode="S" horiz-adv-x="1296" d="M123 117l22 45q159 -81 255.5 -103t265.5 -22q206 0 331 88t125 240q0 60 -25.5 108t-64 80.5t-103.5 61t-122.5 45.5t-142.5 38q-73 18 -120 31.5t-108.5 34.5t-101 40.5t-81.5 49t-65.5 62t-39 75.5t-15.5 94q0 163 130.5 264t352.5 101q125 0 265 -30t231 -81l-25 -45 q-83 47 -219 76t-252 29q-200 0 -316 -86.5t-116 -227.5q0 -43 14.5 -79.5t36.5 -64.5t61 -53.5t75.5 -43t93 -36.5t101 -31t110.5 -29q65 -16 112.5 -29.5t102.5 -33.5t94 -40.5t77 -49.5t61 -61.5t37 -75.5t14 -93q0 -178 -138.5 -278.5t-369.5 -100.5q-174 0 -275 23.5 t-268 107.5z" />
<glyph unicode="T" horiz-adv-x="1351" d="M123 1395v49h1116v-49h-534v-1395h-52v1395h-530z" />
<glyph unicode="U" horiz-adv-x="1544" d="M201 580v864h49v-864q0 -153 58.5 -272.5t178 -191t283.5 -71.5q165 0 285.5 72.5t179.5 192t59 270.5v864h49v-864q0 -123 -37.5 -229t-108.5 -186t-181 -125.5t-246 -45.5t-245 45.5t-179 125t-107.5 185.5t-37.5 230z" />
<glyph unicode="V" horiz-adv-x="1556" d="M96 1444h56l632 -1362l635 1362h56l-672 -1444h-35z" />
<glyph unicode="W" horiz-adv-x="2287" d="M70 1444h53l506 -1354l483 1354h41l481 -1354l508 1354h53l-542 -1444h-37l-483 1352l-484 -1352h-37z" />
<glyph unicode="X" horiz-adv-x="1423" d="M96 0l590 721l-590 723h64l559 -684l559 684h63l-591 -723l591 -721h-63l-559 682l-559 -682h-64z" />
<glyph unicode="Y" horiz-adv-x="1314" d="M57 1444h60l540 -893l541 893h62l-576 -942v-502h-51v502z" />
<glyph unicode="Z" horiz-adv-x="1320" d="M104 0v25l1022 1370h-960v49h1040v-25l-1024 -1370h1041v-49h-1119z" />
<glyph unicode="[" horiz-adv-x="561" d="M201 -260v1696h319v-41h-274v-1614h274v-41h-319z" />
<glyph unicode="\" horiz-adv-x="829" d="M-47 1634h51l907 -1896h-51z" />
<glyph unicode="]" horiz-adv-x="595" d="M76 -219h274v1614h-274v41h319v-1696h-319v41z" />
<glyph unicode="^" horiz-adv-x="872" d="M80 1004l344 440h35l344 -440h-58l-305 389l-303 -389h-57z" />
<glyph unicode="_" horiz-adv-x="1181" d="M-6 -63h1194v-43h-1194v43z" />
<glyph unicode="`" horiz-adv-x="886" d="M225 1862l66 6l325 -314h-59z" />
<glyph unicode="a" d="M109 559q0 153 77.5 282.5t210.5 205t289 75.5q133 0 252 -40.5t197 -112.5v133h47v-1102h-47v139q-182 -145 -449 -145q-156 0 -289 75.5t-210.5 205.5t-77.5 284zM158 559q0 -141 71.5 -260t193 -187.5t263.5 -68.5q287 0 449 162v700q-80 80 -195.5 124t-253.5 44 q-143 0 -264 -68t-192.5 -186.5t-71.5 -259.5z" />
<glyph unicode="b" d="M184 0v1544h47v-569q178 147 449 147q156 0 289 -75.5t210.5 -205.5t77.5 -284q0 -153 -77.5 -282.5t-210.5 -205t-289 -75.5q-134 0 -252.5 39.5t-196.5 111.5v-145h-47zM231 209q169 -166 449 -166q143 0 264 68t192.5 186.5t71.5 259.5t-71.5 260t-193 187.5 t-263.5 68.5q-139 0 -254 -42.5t-195 -119.5v-702z" />
<glyph unicode="c" horiz-adv-x="1210" d="M109 557q0 154 80 284t218 205.5t300 75.5q241 0 397 -180l-37 -33q-68 77 -161 120.5t-199 43.5q-149 0 -275.5 -68.5t-200 -187.5t-73.5 -260t73.5 -259.5t200 -186.5t275.5 -68q104 0 197.5 45.5t162.5 126.5l35 -37q-74 -87 -176.5 -135.5t-218.5 -48.5 q-162 0 -300 75.5t-218 205t-80 282.5z" />
<glyph unicode="d" d="M109 557q0 154 77.5 284t210.5 205.5t289 75.5q264 0 449 -147v569h47v-1544h-47v145q-78 -72 -196.5 -111.5t-252.5 -39.5q-156 0 -289 75.5t-210.5 205t-77.5 282.5zM158 557q0 -141 71.5 -259.5t192.5 -186.5t264 -68q138 0 253 43.5t196 122.5v702 q-80 77 -195.5 119.5t-253.5 42.5q-142 0 -263.5 -68.5t-193 -187.5t-71.5 -260z" />
<glyph unicode="e" horiz-adv-x="1310" d="M109 557q0 156 70 284.5t199 204.5t290 76q243 0 386.5 -157.5t143.5 -411.5v-21h-1040q12 -218 157 -353.5t353 -135.5q141 0 255 50.5t187 142.5l41 -31q-79 -100 -204.5 -155.5t-278.5 -55.5q-161 0 -290 76t-199 204t-70 283zM158 580h991q-8 220 -138.5 356.5 t-342.5 136.5q-217 0 -359.5 -140.5t-150.5 -352.5z" />
<glyph unicode="f" horiz-adv-x="753" d="M-70 -324q46 -4 80 -4q112 0 182 66.5t70 200.5v1116h-217v47h217v35q0 96 15.5 169t49.5 129t93.5 85.5t142.5 29.5q125 0 189 -22v-49q-77 22 -189 22q-136 0 -194 -89t-58 -277v-33h416v-47h-416v-1116q0 -35 -2.5 -63t-15 -68t-33 -70t-61 -58.5t-95.5 -44.5 q-47 -12 -94 -12q-30 0 -80 4v49z" />
<glyph unicode="g" horiz-adv-x="1363" d="M106 559q0 153 78 282.5t211 205t289 75.5q133 0 252 -40.5t197 -112.5v133h47v-993q0 -102 -32 -189t-94.5 -154t-162 -105t-225.5 -38q-51 0 -91 1t-76.5 5t-58 6.5t-54.5 10t-47 11t-55 15.5t-59 17l13 47q125 -39 201.5 -51.5t226.5 -12.5q121 0 214 37.5t146.5 99 t80 132.5t26.5 147v51q-182 -145 -449 -145q-156 0 -289 75.5t-211 205.5t-78 284zM156 559q0 -141 71.5 -260t193 -187.5t263.5 -68.5q287 0 449 162v700q-80 80 -195.5 124t-253.5 44q-143 0 -264 -68t-192.5 -186.5t-71.5 -259.5z" />
<glyph unicode="h" horiz-adv-x="1308" d="M184 0v1544h47v-581q159 159 449 159q99 0 184.5 -31.5t150.5 -90.5t102.5 -152t37.5 -209v-639h-47v639q0 206 -121.5 320t-306.5 114q-270 0 -449 -162v-911h-47z" />
<glyph unicode="i" horiz-adv-x="421" d="M164 1397q0 20 13.5 33.5t33.5 13.5t33.5 -13.5t13.5 -33.5t-13.5 -33.5t-33.5 -13.5t-33.5 13.5t-13.5 33.5zM186 0v1102h50v-1102h-50z" />
<glyph unicode="j" horiz-adv-x="417" d="M-147 -324q46 -4 79 -4q110 0 181 69.5t71 197.5v1163h49v-1163q0 -151 -85 -233.5t-216 -82.5q-29 0 -79 4v49zM160 1397q0 20 13.5 33.5t33.5 13.5t33.5 -13.5t13.5 -33.5t-13.5 -33.5t-33.5 -13.5t-33.5 13.5t-13.5 33.5z" />
<glyph unicode="k" horiz-adv-x="1255" d="M184 0v1544h49v-1263l885 821h74l-453 -418l451 -684h-60l-428 649l-469 -434v-215h-49z" />
<glyph unicode="l" horiz-adv-x="417" d="M184 0v1544h49v-1544h-49z" />
<glyph unicode="m" horiz-adv-x="2060" d="M184 0v1102h47v-139q153 159 428 159q112 0 206 -48t153 -140q67 92 173.5 140t240.5 48q99 0 184.5 -31.5t150.5 -90.5t102.5 -152t37.5 -209v-639h-47v639q0 206 -120.5 320t-307.5 114q-233 0 -394 -176q56 -115 56 -258v-639h-47v639q0 202 -111 318t-277 116 q-258 0 -428 -162v-911h-47z" />
<glyph unicode="n" horiz-adv-x="1312" d="M184 0v1102h47v-139q159 159 449 159q99 0 184.5 -31.5t150.5 -90.5t102.5 -152t37.5 -209v-639h-47v639q0 206 -120.5 320t-307.5 114q-270 0 -449 -162v-911h-47z" />
<glyph unicode="o" horiz-adv-x="1411" d="M106 557q0 154 80.5 284t218.5 205.5t300 75.5t300 -75.5t218 -205.5t80 -284q0 -153 -80 -282.5t-218 -205t-300 -75.5t-300 75.5t-218.5 205t-80.5 282.5zM156 557q0 -141 73.5 -259.5t200 -186.5t275.5 -68t275 68t199.5 186.5t73.5 259.5t-73.5 260t-199.5 187.5 t-275 68.5t-275.5 -68.5t-200 -187.5t-73.5 -260z" />
<glyph unicode="p" horiz-adv-x="1370" d="M184 -358v1460h47v-133q78 72 197 112.5t252 40.5q156 0 289 -75.5t210.5 -205t77.5 -282.5q0 -154 -77.5 -284t-210.5 -205.5t-289 -75.5q-273 0 -449 145v-497h-47zM231 205q162 -162 449 -162q142 0 263.5 68.5t193 187.5t71.5 260t-71.5 259.5t-192.5 186.5t-264 68 q-281 0 -449 -168v-700z" />
<glyph unicode="q" horiz-adv-x="1370" d="M113 559q0 153 77.5 282.5t210.5 205t289 75.5q133 0 252 -40.5t197 -112.5v133h47v-1460h-47v497q-182 -145 -449 -145q-156 0 -289 75.5t-210.5 205.5t-77.5 284zM162 559q0 -141 71.5 -260t193 -187.5t263.5 -68.5q287 0 449 162v700q-80 80 -195.5 124t-253.5 44 q-143 0 -264 -68t-192.5 -186.5t-71.5 -259.5z" />
<glyph unicode="r" horiz-adv-x="886" d="M184 0v1102h47v-277q49 139 146 218t233 79q104 0 205 -49l-20 -45q-90 45 -185 45q-163 0 -271 -140.5t-108 -348.5v-584h-47z" />
<glyph unicode="s" horiz-adv-x="1101" d="M109 92l20 45q242 -94 432 -94q103 0 180 21.5t120 59t64 81.5t21 96q0 53 -29.5 94t-86.5 70.5t-123.5 50t-157.5 37.5q-78 16 -138 33t-114.5 41.5t-90 53.5t-56.5 69t-21 88q0 122 115 203t284 81q208 0 400 -82l-17 -45q-166 78 -383 78q-148 0 -249 -66.5 t-101 -168.5q0 -93 93.5 -146.5t285.5 -89.5q104 -20 177 -42.5t135.5 -57.5t94 -85t31.5 -116q0 -62 -23.5 -115t-72 -97t-135.5 -69.5t-203 -25.5q-206 0 -452 98z" />
<glyph unicode="t" horiz-adv-x="790" d="M47 1055v47h209v442h49v-442h445v-47h-445v-719q0 -149 69.5 -221t182.5 -72q107 0 188 23v-50q-64 -22 -188 -22q-131 0 -216 82t-85 233v746h-209z" />
<glyph unicode="u" horiz-adv-x="1333" d="M158 477v625h47v-625q0 -206 120.5 -320t307.5 -114q277 0 469 162v897h47v-1102h-47v154q-81 -77 -203 -118.5t-266 -41.5q-99 0 -184.5 31.5t-150.5 90.5t-102.5 152t-37.5 209z" />
<glyph unicode="v" horiz-adv-x="1239" d="M59 1102h58l504 -1026l501 1026h58l-543 -1102h-33z" />
<glyph unicode="w" horiz-adv-x="1736" d="M39 1102h53l397 -1014l359 1014h41l360 -1014l396 1014h53l-432 -1102h-35l-363 1010l-360 -1010h-35z" />
<glyph unicode="x" horiz-adv-x="1185" d="M76 0l489 551l-489 551h65l457 -514l457 514h65l-489 -551l489 -551h-65l-457 514l-457 -514h-65z" />
<glyph unicode="y" horiz-adv-x="1241" d="M74 1102h55l496 -1053h55l426 1053h53l-469 -1161q-64 -160 -215.5 -239t-365.5 -79h-17v49h23q131 0 237 32.5t188 107.5t122 188h-68z" />
<glyph unicode="z" horiz-adv-x="1212" d="M113 0v37l927 1018h-899v47h981v-29l-932 -1026h930v-47h-1007z" />
<glyph unicode="{" horiz-adv-x="761" d="M68 557v41q53 0 92.5 4t72 8.5t55 19.5t39 25.5t26.5 39t16 48t8.5 64.5t3 75t0.5 93v221q0 67 17.5 113.5t43.5 72t71.5 39.5t85.5 17.5t101 3.5v-45q-54 0 -88.5 -3t-73.5 -14.5t-61 -32.5t-36.5 -59t-14.5 -92v-221q0 -197 -32.5 -285t-133.5 -112 q101 -19 133.5 -101.5t32.5 -275.5v-262q0 -54 14.5 -92t36.5 -59t61 -32.5t73.5 -14.5t88.5 -3v-45q-60 0 -101 4t-85.5 18.5t-71 40.5t-44 72t-17.5 111v262q0 70 -0.5 102.5t-5 79t-11.5 64.5t-23 44t-37 33.5t-56 18t-77 12.5t-103 2z" />
<glyph unicode="|" horiz-adv-x="503" d="M215 -262v1896h45v-1896h-45z" />
<glyph unicode="}" horiz-adv-x="753" d="M68 -262q54 0 88.5 3t73.5 14.5t61 32.5t36.5 59t14.5 92v262q0 193 32.5 275.5t133.5 101.5q-101 24 -133.5 112t-32.5 285v221q0 54 -14.5 92t-36.5 59t-61 32.5t-73.5 14.5t-88.5 3v45q61 0 101 -3.5t85.5 -17.5t71.5 -39.5t43.5 -72t17.5 -113.5v-221q0 -63 0.5 -93 t3 -75t8.5 -64.5t16 -48t26.5 -39t39 -25.5t55 -19.5t72 -8.5t92.5 -4v-41q-61 0 -103 -2t-77 -12.5t-56 -18t-37 -33.5t-23 -44t-11.5 -64.5t-5 -79t-0.5 -102.5v-262q0 -65 -17.5 -111t-44 -72t-71 -40.5t-85.5 -18.5t-101 -4v45z" />
<glyph unicode="~" horiz-adv-x="935" d="M92 512q35 209 215 209q63 0 173 -50t167 -50q52 0 93.5 41t52.5 122l47 -8q-18 -103 -70 -154t-123 -51q-62 0 -176.5 50.5t-163.5 50.5q-132 0 -168 -166z" />
<glyph unicode="&#xa1;" horiz-adv-x="372" d="M133 1401q0 20 13.5 33.5t33.5 13.5t33.5 -13.5t13.5 -33.5t-13.5 -33.5t-33.5 -13.5t-33.5 13.5t-13.5 33.5zM154 0l12 1094h24l13 -1094h-49z" />
<glyph unicode="&#xa2;" horiz-adv-x="1177" d="M74 754q0 130 53.5 239t141.5 178.5t199 107.5t230 38l31 145h51l-30 -149q187 -26 319 -174l-37 -33q-118 134 -293 158l-207 -1008q75 -16 140 -16q104 0 197.5 45.5t162.5 126.5l35 -37q-75 -87 -177.5 -136t-217.5 -49q-76 0 -150 19l-43 -209h-51l45 221 q-176 59 -287.5 205t-111.5 328zM123 754q0 -166 100 -298.5t260 -185.5l205 1000q-117 0 -222.5 -40.5t-180 -109.5t-118.5 -164.5t-44 -201.5z" />
<glyph unicode="&#xa3;" horiz-adv-x="1308" d="M88 0v35l231 14q-53 427 -65 580h-143v49h141q-8 91 -8 176q0 158 38.5 275t109.5 186.5t163.5 103t208.5 33.5q144 0 262.5 -70.5t185.5 -189.5l-43 -25q-61 108 -169 172t-236 64q-237 0 -354 -147.5t-117 -401.5q0 -80 8 -176h674v-49h-670q7 -87 20 -196t28 -226.5 t20 -157.5h864v-49h-1149z" />
<glyph unicode="&#xa4;" horiz-adv-x="1992" d="M98 -229h8l25 -76l16 76h9l18 -76l25 76h8l-29 -86h-8l-18 71l-17 -71h-8zM174 45v180h62q38 0 64 -26.5t26 -63.5t-24.5 -63.5t-59.5 -26.5h-68zM221 -229h8l25 -76l16 76h9l18 -76l25 76h8l-29 -86h-8l-19 71l-16 -71h-8zM223 88h15q17 0 27.5 13t10.5 34 q0 19 -11.5 32t-28.5 13h-13v-92zM340 45v180h129v-41h-80v-24h53v-35h-53v-41h86v-39h-135zM348 -229h8l25 -76l16 76h9l18 -76l25 76h8l-29 -86h-8l-19 71l-16 -71h-8zM406 922q0 116 64 210t169 136q42 105 136 169t212 64q116 0 210 -64t136 -169q105 -42 169.5 -136 t64.5 -210q0 -117 -64.5 -212t-169.5 -137q-42 -105 -136 -169t-210 -64q-118 0 -212 64t-136 169q-105 42 -169 136.5t-64 212.5zM461 -311q0 8 8 8t8 -8t-8 -8t-8 8zM487 59l19 37q28 -14 61 -14q21 0 21 12q0 9 -29 19q-34 7 -50.5 18.5t-16.5 38.5q0 25 17.5 41t49.5 16 t74 -14l-21 -39q-32 12 -53 12q-18 0 -18 -12q0 -11 30 -18q68 -13 68 -56q0 -59 -74 -59q-38 0 -78 18zM500 -231h8v-86h-8v86zM530 -231h9l51 -72v72h8v-86h-8l-51 73v-73h-9v86zM616 -231h62v-9h-27v-77h-8v77h-27v9zM655 45v180h50v-180h-50zM698 -231h54v-9h-45v-36h41 v-9h-41v-24h45v-8h-54v86zM713 602h88v141l141 -141v275h-229v-275zM713 965h229v274l-141 -141v141h-88v-274zM719 135q0 39 27.5 65.5t68.5 26.5q45 0 74 -26l-33 -33q-17 14 -41 14q-19 0 -32 -13.5t-13 -33.5q0 -23 13 -37t32 -14q16 0 29 8v8h-33v35h84v-67 q-39 -27 -80 -27q-40 -1 -68 27t-28 67zM770 -231h8v-78h41v-8h-49v86zM838 -231h8v-78h41v-8h-49v86zM905 -231h8v-86h-8v86zM913 45v180h23l96 -94v94h49v-180h-22l-96 92v-92h-50zM932 -274q0 19 13 32t30 13q18 0 33 -15l-7 -6q-9 12 -26 12q-14 0 -24.5 -10t-10.5 -26 q0 -14 10 -24.5t27 -10.5q6 0 18 4l6 4v10h-20v8h29v-22l-9 -6q-9 -6 -24 -6q-20 0 -32.5 12t-12.5 31zM1028 -231h53v-9h-45v-36h41v-9h-41v-24h45v-8h-53v86zM1030 602h72q66 0 112 46.5t46 113.5q0 68 -50 115h-180v-275zM1030 965h180q50 47 50 114t-46 113.5t-112 46.5 h-72v-274zM1100 -231h8l51 -72v72h8v-86h-8l-51 73v-73h-8v86zM1104 45v180h131v-41h-82v-24h55v-35h-55v-41h86v-39h-135zM1184 -231h61v-9h-26v-77h-9v77h-26v9zM1262 45v180h61q38 0 64 -26.5t26 -63.5t-24.5 -63.5t-59.5 -26.5h-67zM1264 -231h24q18 0 30.5 -12.5 t12.5 -30.5t-12.5 -30.5t-30.5 -12.5h-24v86zM1272 -240v-69h16q14 0 24.5 10.5t10.5 24.5q0 16 -10 25t-25 9h-16zM1311 88h14q17 0 28 13.5t11 33.5q0 19 -12 32t-29 13h-12v-92zM1350 -231h53v-9h-45v-36h41v-9h-41v-24h45v-8h-53v86zM1417 -299l6 4q6 -14 25 -14 q16 0 16 16q0 11 -16 17t-20.5 11t-4.5 13q0 23 23 23q13 0 22 -15l-6 -4q-7 10 -16 10q-14 0 -14 -14q0 -10 18 -16q23 -10 23 -25q0 -24 -25 -24q-22 0 -31 18zM1475 45v180h79q54 0 54 -39q0 -18 -17 -32q35 -15 35 -54q0 -55 -55 -55h-96zM1493 -231h8v-86h-8v86z M1520 -274q0 19 13 32t30 13t32 -15l-6 -6q-9 12 -26 12q-14 0 -24.5 -10t-10.5 -26q0 -14 10 -24.5t27 -10.5q6 0 18 4l6 4v10h-20v8h28v-22l-8 -6q-9 -6 -24 -6q-20 0 -32.5 12t-12.5 31zM1522 84h22q31 0 31 22q0 21 -37 21h-16v-43zM1522 162h28q15 0 15 10q0 12 -13 12 h-30v-22zM1614 223h55l37 -65l37 65h57l-69 -119v-59h-50v59zM1618 -231h8l51 -72v72h9v-86h-9l-51 73v-73h-8v86zM1700 -311q0 8 8 8t8 -8t-8 -8t-8 8zM1724 -274q0 19 13 32t30 13q18 0 33 -15l-6 -6q-9 12 -27 12q-14 0 -24 -9.5t-10 -26.5q0 -14 10 -24.5t26 -10.5 q7 0 19 4l6 4v10h-20v8h28v-22l-8 -6q-9 -6 -25 -6q-20 0 -32.5 12t-12.5 31zM1821 -231h22q13 0 23 -10.5t10 -22.5q0 -22 -18 -31l20 -22h-12l-17 18h-20v-18h-8v86zM1829 -240v-51h14q25 3 25 27q0 10 -7 17t-18 7h-14z" />
<glyph unicode="&#xa5;" horiz-adv-x="1425" d="M96 1444h60l540 -893l541 893h61l-516 -844h373v-51h-403l-29 -47v-29h430v-51h-430v-422h-51v422h-432v51h432v29l-29 47h-403v51h370z" />
<glyph unicode="&#xa6;" horiz-adv-x="483" d="M219 -260v784h43v-784h-43zM219 850v784h43v-784h-43z" />
<glyph unicode="&#xa7;" horiz-adv-x="1282" d="M164 764q0 63 51.5 113t138.5 84q-147 72 -147 200q0 71 35 129t91.5 93t124 54t136.5 19q73 0 160 -15.5t139 -30.5t137 -42l-12 -49q-86 27 -136.5 41.5t-135 30.5t-152.5 16q-82 0 -157 -26.5t-128 -84t-53 -135.5q0 -23 7.5 -44t18.5 -37.5t32 -32.5t40 -27t50 -23.5 t54 -20.5t61.5 -18.5t63 -16.5t67 -16t65.5 -16q204 -51 290.5 -104.5t86.5 -151.5q0 -62 -45.5 -113t-102.5 -83q84 -58 84 -158q0 -52 -24 -103t-71 -96t-126.5 -72.5t-179.5 -27.5q-265 0 -457 94l23 45q60 -30 102.5 -46.5t123 -30t183.5 -13.5q95 0 169.5 22t118.5 58 t66.5 79.5t22.5 90.5q0 33 -13 60t-39.5 46.5t-54 33.5t-70 25.5t-74 18.5t-78.5 16t-72 15q-61 14 -99.5 24t-87 25t-78 28t-61.5 31.5t-49 38.5t-28 46t-11 57zM213 764q0 -28 16.5 -52t43 -42t73.5 -36.5t93 -32t118 -32.5q27 -7 153 -34t179 -48q34 4 93.5 56t59.5 110 q0 71 -69 114.5t-258 88.5q-25 6 -95 22t-118.5 29t-89.5 29q-84 -31 -141.5 -78t-57.5 -94z" />
<glyph unicode="&#xa8;" horiz-adv-x="1024" d="M313 1653q0 20 13.5 33.5t33.5 13.5t34 -13.5t14 -33.5t-14 -33.5t-34 -13.5t-33.5 13.5t-13.5 33.5zM616 1653q0 20 14 33.5t34 13.5t33.5 -13.5t13.5 -33.5t-13.5 -33.5t-33.5 -13.5t-34 13.5t-14 33.5z" />
<glyph unicode="&#xa9;" horiz-adv-x="1699" d="M125 725q0 146 57 280.5t153.5 233.5t232 158t286.5 59q150 0 285 -58.5t231 -157.5t152.5 -233.5t56.5 -281.5q0 -146 -57 -280.5t-153.5 -233.5t-232 -158t-286.5 -59q-150 0 -285 58.5t-231 157t-152.5 233.5t-56.5 282zM172 725q0 -138 52.5 -264t142.5 -218 t216 -147t267 -55q188 0 345.5 93t247 250.5t89.5 340.5q0 138 -52.5 264t-142.5 218t-216 147t-267 55q-188 0 -345.5 -93t-247 -250.5t-89.5 -340.5zM436 725q0 178 123 303t297 125q97 0 182.5 -42.5t143.5 -117.5l-37 -28q-52 67 -127 104t-162 37q-154 0 -263.5 -111.5 t-109.5 -269.5q0 -159 109.5 -271t263.5 -112q87 0 162 37t127 104l37 -28q-58 -75 -143.5 -117.5t-182.5 -42.5q-174 0 -297 126t-123 304z" />
<glyph unicode="&#xaa;" horiz-adv-x="974" d="M113 1036q0 162 117.5 276.5t283.5 114.5q163 0 285 -84v70h45v-751h-45v63q-119 -82 -285 -82t-283.5 114.5t-117.5 278.5zM160 1036q0 -142 103.5 -244t250.5 -102q166 0 285 94v500q-48 45 -123.5 70.5t-161.5 25.5q-147 0 -250.5 -100.5t-103.5 -243.5z" />
<glyph unicode="&#xab;" horiz-adv-x="1040" d="M121 545l354 524l6 -4q3 -1 6.5 -4t6.5 -4l16 -13l-338 -499l338 -500l-35 -25zM551 545l354 524l6 -4q3 -1 6.5 -4t6.5 -4l16 -13l-338 -499l338 -500l-35 -25z" />
<glyph unicode="&#xac;" horiz-adv-x="1216" d="M90 860v47h1008v-377h-49v330h-959z" />
<glyph unicode="&#xad;" horiz-adv-x="835" d="M102 657v43h631v-43h-631z" />
<glyph unicode="&#xae;" horiz-adv-x="1699" d="M125 725q0 146 57 280.5t153.5 233.5t232 158t286.5 59q150 0 285 -58.5t231 -157.5t152.5 -233.5t56.5 -281.5q0 -146 -57 -280.5t-153.5 -233.5t-232 -158t-286.5 -59q-150 0 -285 58.5t-231 157t-152.5 233.5t-56.5 282zM172 725q0 -138 52.5 -264t142.5 -218 t216 -147t267 -55q188 0 345.5 93t247 250.5t89.5 340.5q0 138 -52.5 264t-142.5 218t-216 147t-267 55q-188 0 -345.5 -93t-247 -250.5t-89.5 -340.5zM573 315v832h314q149 0 216.5 -73t67.5 -187q0 -216 -200 -266l223 -293l-39 -27l-233 311q-23 -2 -64 -2h-237v-295h-48 zM621 657h237q124 0 195 55.5t71 174.5q0 93 -57 153t-180 60h-266v-443z" />
<glyph unicode="&#xaf;" horiz-adv-x="1024" d="M188 1632v45h648v-45h-648z" />
<glyph unicode="&#xb0;" horiz-adv-x="966" d="M111 1110q0 148 111.5 256.5t260.5 108.5q150 0 261.5 -108.5t111.5 -260.5q0 -148 -110.5 -254.5t-262.5 -106.5q-153 0 -262.5 106.5t-109.5 258.5zM158 1110q0 -129 96.5 -223t228.5 -94q131 0 228.5 92.5t97.5 220.5q0 130 -98 225.5t-228 95.5t-227.5 -94.5 t-97.5 -222.5z" />
<glyph unicode="&#xb1;" horiz-adv-x="1310" d="M154 0v43h1007v-43h-1007zM154 848v41h483v483h41v-483h483v-41h-483v-483h-41v483h-483z" />
<glyph unicode="&#xb2;" horiz-adv-x="849" d="M96 612v23q39 57 116 108t154.5 89t151 81t120 102t46.5 132q0 115 -83.5 193.5t-197.5 78.5q-109 0 -184 -78q-78 -81 -78 -194v-19h-45v19q0 137 90 227t217 90q133 0 229.5 -91.5t96.5 -225.5q0 -68 -30.5 -125t-78 -94.5t-110.5 -74t-121.5 -63t-119 -62.5t-95.5 -71 h561v-45h-639z" />
<glyph unicode="&#xb3;" horiz-adv-x="849" d="M70 662l18 40q72 -34 137 -45.5t162 -11.5q132 0 210.5 60t78.5 163q0 90 -80 140.5t-199 50.5h-20l-10 16l258 322h-512v45h592v-21l-265 -321q122 -8 201.5 -70.5t79.5 -161.5q0 -126 -90 -197t-244 -71q-102 0 -169.5 13t-147.5 49z" />
<glyph unicode="&#xb4;" horiz-adv-x="1024" d="M346 1554l326 314l65 -6l-331 -308h-60z" />
<glyph unicode="&#xb5;" horiz-adv-x="1359" d="M184 -344v1448h47v-627q0 -206 121.5 -320t306.5 -114q277 0 469 162v897h48v-1102h-48v154q-81 -77 -203 -118.5t-266 -41.5t-258 65t-170 187v-590h-47z" />
<glyph unicode="&#xb6;" horiz-adv-x="1122" d="M66 1001q0 207 122.5 320t333.5 113h449v-1434h-47v1386h-306v-1386h-47v573h-43q-207 0 -334.5 112t-127.5 316zM113 1001q0 -181 115 -280.5t300 -99.5h43v765h-49q-187 0 -298 -100t-111 -285z" />
<glyph unicode="&#xb7;" horiz-adv-x="321" d="M106 641q0 20 14 33.5t34 13.5t33.5 -13.5t13.5 -33.5t-13.5 -33.5t-33.5 -13.5t-34 13.5t-14 33.5z" />
<glyph unicode="&#xb8;" horiz-adv-x="878" d="M285 -360l14 38q54 -16 111 -16q66 0 97.5 32t31.5 75q0 79 -150 79l90 154h41l-61 -123q56 0 92.5 -29t36.5 -81q0 -59 -43 -104.5t-133 -45.5q-37 0 -68.5 6t-45.5 11z" />
<glyph unicode="&#xb9;" horiz-adv-x="665" d="M160 1386l256 58h18v-832h-45v781l-219 -50z" />
<glyph unicode="&#xba;" horiz-adv-x="1038" d="M92 1038q0 164 122.5 280t295.5 116q172 0 295 -116t123 -280t-123 -278.5t-295 -114.5q-174 0 -296 114.5t-122 278.5zM139 1038q0 -142 109 -244t262 -102q152 0 261.5 102.5t109.5 243.5q0 143 -109.5 245.5t-261.5 102.5q-153 0 -262 -102.5t-109 -245.5z" />
<glyph unicode="&#xbb;" horiz-adv-x="1034" d="M121 45l338 500l-338 499l16 13q15 12 19 12l354 -524l-354 -525zM551 45l338 500l-338 499l16 13q15 12 19 12l354 -524l-354 -525z" />
<glyph unicode="&#xbc;" horiz-adv-x="1705" d="M139 1386l256 58h19v-832h-45v781l-219 -50zM281 0l989 1436h51l-989 -1436h-51zM868 266l490 568h33v-568h184v-45h-184v-221h-45v221h-457zM928 266h418v484z" />
<glyph unicode="&#xbd;" horiz-adv-x="1814" d="M139 1386l256 58h19v-832h-45v781l-219 -50zM281 0l989 1436h51l-989 -1436h-51zM1030 0v23q39 57 116 108t154.5 89t151 81t120 102t46.5 132q0 115 -83.5 193.5t-197.5 78.5q-107 0 -184.5 -78t-77.5 -194v-19h-45v19q0 137 90 227t217 90q133 0 229.5 -91.5 t96.5 -225.5q0 -68 -30.5 -125t-78 -94.5t-110.5 -74t-121.5 -63t-119 -62.5t-95.5 -71h561v-45h-639z" />
<glyph unicode="&#xbe;" horiz-adv-x="1789" d="M70 662l18 40q72 -34 137 -45.5t162 -11.5q132 0 210.5 60t78.5 163q0 90 -79.5 140.5t-199.5 50.5h-20l-10 16l258 322h-512v45h592v-21l-265 -321q122 -8 201.5 -70.5t79.5 -161.5q0 -126 -90 -197t-244 -71q-102 0 -169.5 13t-147.5 49zM403 0l990 1436h51l-989 -1436 h-52zM991 266l490 568h32v-568h185v-45h-185v-221h-45v221h-458zM1051 266h417v484z" />
<glyph unicode="&#xbf;" horiz-adv-x="1105" d="M104 449q0 169 134 273.5t368 104.5l8 283h39l6 -311l-12 -17h-14q-241 0 -362 -94t-121 -239q0 -193 133 -302.5t354 -109.5q142 0 235.5 19.5t198.5 78.5l21 -41q-116 -60 -212.5 -81t-242.5 -21q-243 0 -388 121.5t-145 335.5zM592 1401q0 20 13.5 33.5t33.5 13.5 t33.5 -13.5t13.5 -33.5t-13.5 -33.5t-33.5 -13.5t-33.5 13.5t-13.5 33.5z" />
<glyph unicode="&#xc0;" horiz-adv-x="1443" d="M53 0l645 1444h47l646 -1444h-54l-192 432h-848l-191 -432h-53zM317 477h809l-405 914zM365 1862l65 6l326 -314h-60z" />
<glyph unicode="&#xc1;" horiz-adv-x="1443" d="M53 0l645 1444h47l646 -1444h-54l-192 432h-848l-191 -432h-53zM317 477h809l-405 914zM698 1554l326 314l66 -6l-332 -308h-60z" />
<glyph unicode="&#xc2;" horiz-adv-x="1443" d="M53 0l645 1444h47l646 -1444h-54l-192 432h-848l-191 -432h-53zM317 477h809l-405 914zM412 1554l288 269h39l293 -269h-74l-237 218l-236 -218h-73z" />
<glyph unicode="&#xc3;" horiz-adv-x="1443" d="M53 0l645 1444h47l646 -1444h-54l-192 432h-848l-191 -432h-53zM317 477h809l-405 914zM350 1571q35 209 215 209q63 0 173 -50.5t167 -50.5q52 0 93.5 41.5t52.5 122.5l47 -8q-18 -103 -70 -154t-123 -51q-62 0 -176.5 50.5t-163.5 50.5q-132 0 -168 -166z" />
<glyph unicode="&#xc4;" horiz-adv-x="1443" d="M53 0l645 1444h47l646 -1444h-54l-192 432h-848l-191 -432h-53zM317 477h809l-405 914zM520 1653q0 20 13.5 33.5t33.5 13.5t33.5 -13.5t13.5 -33.5t-13.5 -33.5t-33.5 -13.5t-33.5 13.5t-13.5 33.5zM823 1653q0 20 13.5 33.5t33.5 13.5t34 -13.5t14 -33.5t-14 -33.5 t-34 -13.5t-33.5 13.5t-13.5 33.5z" />
<glyph unicode="&#xc5;" horiz-adv-x="1443" d="M53 0l631 1415q-56 12 -93.5 57.5t-37.5 104.5q0 67 50 116.5t118 49.5t118 -49.5t50 -116.5q0 -59 -37.5 -104.5t-93.5 -57.5l633 -1415h-54l-192 432h-848l-191 -432h-53zM317 477h809l-405 914zM604 1577q0 -47 35 -81t82 -34t82 34t35 81t-35 81t-82 34t-82 -34 t-35 -81z" />
<glyph unicode="&#xc6;" horiz-adv-x="2000" d="M43 0l784 1444h1018v-49h-887v-670h760v-49h-760v-627h930v-49h-979v432h-575l-234 -432h-57zM358 477h551v918h-53z" />
<glyph unicode="&#xc7;" horiz-adv-x="1579" d="M123 721q0 197 101 365t274.5 266t378.5 98q176 0 328 -72.5t259 -199.5l-39 -35q-101 120 -242.5 188t-305.5 68q-190 0 -352 -91t-256.5 -247.5t-94.5 -339.5q0 -182 94.5 -338t256.5 -247t352 -91q164 0 306 67.5t242 186.5l39 -35q-106 -126 -257.5 -197.5 t-327.5 -72.5l-58 -115q56 0 92.5 -29t36.5 -81q0 -59 -43 -104.5t-133 -45.5q-37 0 -68.5 6t-45.5 11l-13 4l15 38q54 -16 110 -16q66 0 97.5 32t31.5 75q0 79 -149 79l86 148q-196 8 -360.5 107.5t-259.5 263t-95 354.5z" />
<glyph unicode="&#xc8;" horiz-adv-x="1292" d="M201 0v1444h936v-49h-887v-670h760v-49h-760v-627h930v-49h-979zM328 1862l65 6l326 -314h-60z" />
<glyph unicode="&#xc9;" horiz-adv-x="1292" d="M201 0v1444h936v-49h-887v-670h760v-49h-760v-627h930v-49h-979zM659 1554l326 314l66 -6l-332 -308h-60z" />
<glyph unicode="&#xca;" horiz-adv-x="1292" d="M201 0v1444h936v-49h-887v-670h760v-49h-760v-627h930v-49h-979zM375 1554l289 269h38l293 -269h-73l-238 218l-235 -218h-74z" />
<glyph unicode="&#xcb;" horiz-adv-x="1292" d="M201 0v1444h936v-49h-887v-670h760v-49h-760v-627h930v-49h-979zM485 1653q0 20 13.5 33.5t33.5 13.5t34 -13.5t14 -33.5t-14 -33.5t-34 -13.5t-33.5 13.5t-13.5 33.5zM788 1653q0 20 14 33.5t34 13.5t33.5 -13.5t13.5 -33.5t-13.5 -33.5t-33.5 -13.5t-34 13.5t-14 33.5z " />
<glyph unicode="&#xcc;" horiz-adv-x="452" d="M-133 1888l65 6l326 -313h-59zM201 0v1444h51v-1444h-51z" />
<glyph unicode="&#xcd;" horiz-adv-x="452" d="M201 0v1444h51v-1444h-51zM207 1581l325 313l66 -6l-332 -307h-59z" />
<glyph unicode="&#xce;" horiz-adv-x="452" d="M-82 1581l289 268h39l293 -268h-74l-238 217l-235 -217h-74zM201 0v1444h51v-1444h-51z" />
<glyph unicode="&#xcf;" horiz-adv-x="452" d="M31 1679q0 20 13.5 33.5t33.5 13.5t33.5 -13.5t13.5 -33.5t-13.5 -33.5t-33.5 -13.5t-33.5 13.5t-13.5 33.5zM201 0v1444h51v-1444h-51zM334 1679q0 20 13.5 33.5t33.5 13.5t33.5 -13.5t13.5 -33.5t-13.5 -33.5t-33.5 -13.5t-33.5 13.5t-13.5 33.5z" />
<glyph unicode="&#xd0;" horiz-adv-x="1478" d="M-20 700v45h221v699h428q197 0 364.5 -96.5t265 -263t97.5 -363.5q0 -190 -90.5 -356t-248 -265.5t-341.5 -99.5h-475v700h-221zM250 49h422q128 0 245.5 55.5t202 147.5t135 215t50.5 254q0 182 -91 337.5t-247 246t-338 90.5h-379v-650h440v-45h-440v-651z" />
<glyph unicode="&#xd1;" horiz-adv-x="1570" d="M201 0v1444h39l1081 -1352v1352h49v-1444h-39l-1081 1352v-1352h-49zM412 1571q35 209 215 209q63 0 173 -50.5t167 -50.5q52 0 93 41.5t52 122.5l47 -8q-18 -104 -70 -154.5t-122 -50.5q-62 0 -176.5 50.5t-163.5 50.5q-132 0 -168 -166z" />
<glyph unicode="&#xd2;" horiz-adv-x="1761" d="M123 721q0 148 60 283t161.5 232.5t242 155.5t294.5 58q206 0 380.5 -98t275.5 -266t101 -365t-101 -364.5t-275.5 -265t-380.5 -97.5q-154 0 -294.5 57.5t-242 155t-161.5 232t-60 282.5zM174 721q0 -182 95 -338t258 -247t354 -91q144 0 275 54t225 144.5t150 215.5 t56 262t-56 262.5t-150 216.5t-225 145t-275 54q-191 0 -354 -91t-258 -247.5t-95 -339.5zM504 1862l65 6l326 -314h-59z" />
<glyph unicode="&#xd3;" horiz-adv-x="1761" d="M123 721q0 148 60 283t161.5 232.5t242 155.5t294.5 58q206 0 380.5 -98t275.5 -266t101 -365t-101 -364.5t-275.5 -265t-380.5 -97.5q-154 0 -294.5 57.5t-242 155t-161.5 232t-60 282.5zM174 721q0 -182 95 -338t258 -247t354 -91q144 0 275 54t225 144.5t150 215.5 t56 262t-56 262.5t-150 216.5t-225 145t-275 54q-191 0 -354 -91t-258 -247.5t-95 -339.5zM834 1554l325 314l66 -6l-332 -308h-59z" />
<glyph unicode="&#xd4;" horiz-adv-x="1761" d="M123 721q0 148 60 283t161.5 232.5t242 155.5t294.5 58q206 0 380.5 -98t275.5 -266t101 -365t-101 -364.5t-275.5 -265t-380.5 -97.5q-154 0 -294.5 57.5t-242 155t-161.5 232t-60 282.5zM174 721q0 -182 95 -338t258 -247t354 -91q144 0 275 54t225 144.5t150 215.5 t56 262t-56 262.5t-150 216.5t-225 145t-275 54q-191 0 -354 -91t-258 -247.5t-95 -339.5zM555 1554l289 269h39l293 -269h-74l-238 218l-235 -218h-74z" />
<glyph unicode="&#xd5;" horiz-adv-x="1761" d="M123 721q0 148 60 283t161.5 232.5t242 155.5t294.5 58q206 0 380.5 -98t275.5 -266t101 -365t-101 -364.5t-275.5 -265t-380.5 -97.5q-154 0 -294.5 57.5t-242 155t-161.5 232t-60 282.5zM174 721q0 -182 95 -338t258 -247t354 -91q144 0 275 54t225 144.5t150 215.5 t56 262t-56 262.5t-150 216.5t-225 145t-275 54q-191 0 -354 -91t-258 -247.5t-95 -339.5zM498 1571q35 209 215 209q63 0 173 -50.5t167 -50.5q52 0 93 41.5t52 122.5l47 -8q-18 -104 -70 -154.5t-122 -50.5q-62 0 -176.5 50.5t-163.5 50.5q-132 0 -168 -166z" />
<glyph unicode="&#xd6;" horiz-adv-x="1761" d="M123 721q0 148 60 283t161.5 232.5t242 155.5t294.5 58q206 0 380.5 -98t275.5 -266t101 -365t-101 -364.5t-275.5 -265t-380.5 -97.5q-154 0 -294.5 57.5t-242 155t-161.5 232t-60 282.5zM174 721q0 -182 95 -338t258 -247t354 -91q144 0 275 54t225 144.5t150 215.5 t56 262t-56 262.5t-150 216.5t-225 145t-275 54q-191 0 -354 -91t-258 -247.5t-95 -339.5zM676 1653q0 20 13.5 33.5t33.5 13.5t33.5 -13.5t13.5 -33.5t-13.5 -33.5t-33.5 -13.5t-33.5 13.5t-13.5 33.5zM979 1653q0 20 13.5 33.5t33.5 13.5t33.5 -13.5t13.5 -33.5 t-13.5 -33.5t-33.5 -13.5t-33.5 13.5t-13.5 33.5z" />
<glyph unicode="&#xd7;" horiz-adv-x="1112" d="M129 223l424 424l-424 424l29 31l424 -426l426 426l30 -29l-426 -426l424 -424l-28 -30l-426 423l-422 -421z" />
<glyph unicode="&#xd8;" horiz-adv-x="1761" d="M123 721q0 148 60 283t161.5 232.5t242 155.5t294.5 58q261 0 471 -160l133 154h57l-156 -180q119 -105 185.5 -245t66.5 -298q0 -197 -101 -364.5t-275.5 -265t-380.5 -97.5q-257 0 -463 151l-125 -145h-55l147 170q-124 101 -193 244t-69 307zM174 721 q0 -151 64.5 -283.5t179.5 -228.5l901 1042q-198 148 -438 148q-191 0 -354 -91t-258 -247.5t-95 -339.5zM453 184q191 -139 428 -139q144 0 275 54t225 144.5t150 215.5t56 262q0 148 -61.5 278.5t-173.5 225.5z" />
<glyph unicode="&#xd9;" horiz-adv-x="1544" d="M201 580v864h49v-864q0 -153 58.5 -272.5t178 -191t283.5 -71.5q165 0 285.5 72.5t179.5 192t59 270.5v864h49v-864q0 -123 -37.5 -229t-108.5 -186t-181 -125.5t-246 -45.5t-245 45.5t-179 125t-107.5 185.5t-37.5 230zM420 1862l65 6l326 -314h-59z" />
<glyph unicode="&#xda;" horiz-adv-x="1544" d="M201 580v864h49v-864q0 -153 58.5 -272.5t178 -191t283.5 -71.5q165 0 285.5 72.5t179.5 192t59 270.5v864h49v-864q0 -123 -37.5 -229t-108.5 -186t-181 -125.5t-246 -45.5t-245 45.5t-179 125t-107.5 185.5t-37.5 230zM752 1554l325 314l66 -6l-332 -308h-59z" />
<glyph unicode="&#xdb;" horiz-adv-x="1544" d="M201 580v864h49v-864q0 -153 58.5 -272.5t178 -191t283.5 -71.5q165 0 285.5 72.5t179.5 192t59 270.5v864h49v-864q0 -123 -37.5 -229t-108.5 -186t-181 -125.5t-246 -45.5t-245 45.5t-179 125t-107.5 185.5t-37.5 230zM467 1554l289 269h39l292 -269h-73l-238 218 l-235 -218h-74z" />
<glyph unicode="&#xdc;" horiz-adv-x="1544" d="M201 580v864h49v-864q0 -153 58.5 -272.5t178 -191t283.5 -71.5q165 0 285.5 72.5t179.5 192t59 270.5v864h49v-864q0 -123 -37.5 -229t-108.5 -186t-181 -125.5t-246 -45.5t-245 45.5t-179 125t-107.5 185.5t-37.5 230zM578 1653q0 20 13.5 33.5t33.5 13.5t33.5 -13.5 t13.5 -33.5t-13.5 -33.5t-33.5 -13.5t-33.5 13.5t-13.5 33.5zM881 1653q0 20 13.5 33.5t33.5 13.5t33.5 -13.5t13.5 -33.5t-13.5 -33.5t-33.5 -13.5t-33.5 13.5t-13.5 33.5z" />
<glyph unicode="&#xdd;" horiz-adv-x="1314" d="M57 1444h60l540 -893l541 893h62l-576 -942v-502h-51v502zM639 1554l326 314l65 -6l-332 -308h-59z" />
<glyph unicode="&#xde;" horiz-adv-x="1337" d="M201 0v1444h49v-236h495q107 0 192 -24.5t141 -66.5t92.5 -100.5t52.5 -123t16 -137.5q0 -125 -40 -218.5t-113.5 -150t-171 -84t-220.5 -27.5h-444v-276h-49zM250 326h444q110 0 198.5 24.5t155.5 75t103.5 134.5t36.5 196q0 65 -14.5 123t-48 110t-83.5 89t-126 59 t-171 22h-495v-833z" />
<glyph unicode="&#xdf;" horiz-adv-x="1294" d="M184 -344v1372q0 239 120 381.5t298 142.5q195 0 315.5 -98t120.5 -276q0 -117 -58.5 -200t-148.5 -114q86 -14 155.5 -57t112 -102t65 -125t22.5 -131q0 -106 -38 -193t-103.5 -144t-153 -87.5t-186.5 -30.5q-146 0 -256 39l18 47q116 -37 238 -37q121 0 217.5 46.5 t155.5 140t59 219.5q0 53 -16 107t-50.5 104.5t-83 89.5t-119 62.5t-153.5 23.5h-56v47h48q114 0 198 80t84 215q0 154 -107.5 239.5t-279.5 85.5q-158 0 -263.5 -129.5t-105.5 -345.5v-1372h-49z" />
<glyph unicode="&#xe0;" d="M109 559q0 153 77.5 282.5t210.5 205t289 75.5q133 0 252 -40.5t197 -112.5v133h47v-1102h-47v139q-182 -145 -449 -145q-156 0 -289 75.5t-210.5 205.5t-77.5 284zM158 559q0 -141 71.5 -260t193 -187.5t263.5 -68.5q287 0 449 162v700q-80 80 -195.5 124t-253.5 44 q-143 0 -264 -68t-192.5 -186.5t-71.5 -259.5zM330 1573l65 6l326 -313h-59z" />
<glyph unicode="&#xe1;" d="M109 559q0 153 77.5 282.5t210.5 205t289 75.5q133 0 252 -40.5t197 -112.5v133h47v-1102h-47v139q-182 -145 -449 -145q-156 0 -289 75.5t-210.5 205.5t-77.5 284zM158 559q0 -141 71.5 -260t193 -187.5t263.5 -68.5q287 0 449 162v700q-80 80 -195.5 124t-253.5 44 q-143 0 -264 -68t-192.5 -186.5t-71.5 -259.5zM662 1266l325 313l66 -6l-332 -307h-59z" />
<glyph unicode="&#xe2;" d="M109 559q0 153 77.5 282.5t210.5 205t289 75.5q133 0 252 -40.5t197 -112.5v133h47v-1102h-47v139q-182 -145 -449 -145q-156 0 -289 75.5t-210.5 205.5t-77.5 284zM158 559q0 -141 71.5 -260t193 -187.5t263.5 -68.5q287 0 449 162v700q-80 80 -195.5 124t-253.5 44 q-143 0 -264 -68t-192.5 -186.5t-71.5 -259.5zM395 1266l289 268h39l293 -268h-74l-237 217l-236 -217h-74z" />
<glyph unicode="&#xe3;" d="M109 559q0 153 77.5 282.5t210.5 205t289 75.5q133 0 252 -40.5t197 -112.5v133h47v-1102h-47v139q-182 -145 -449 -145q-156 0 -289 75.5t-210.5 205.5t-77.5 284zM158 559q0 -141 71.5 -260t193 -187.5t263.5 -68.5q287 0 449 162v700q-80 80 -195.5 124t-253.5 44 q-143 0 -264 -68t-192.5 -186.5t-71.5 -259.5zM334 1282q35 209 215 209q63 0 173 -50t167 -50q52 0 93 41t52 122l47 -8q-18 -104 -70 -154.5t-122 -50.5q-62 0 -176.5 50.5t-163.5 50.5q-132 0 -168 -166z" />
<glyph unicode="&#xe4;" d="M109 559q0 153 77.5 282.5t210.5 205t289 75.5q133 0 252 -40.5t197 -112.5v133h47v-1102h-47v139q-182 -145 -449 -145q-156 0 -289 75.5t-210.5 205.5t-77.5 284zM158 559q0 -141 71.5 -260t193 -187.5t263.5 -68.5q287 0 449 162v700q-80 80 -195.5 124t-253.5 44 q-143 0 -264 -68t-192.5 -186.5t-71.5 -259.5zM508 1364q0 20 13.5 33.5t33.5 13.5t33.5 -13.5t13.5 -33.5t-13.5 -33.5t-33.5 -13.5t-33.5 13.5t-13.5 33.5zM811 1364q0 20 13.5 33.5t33.5 13.5t33.5 -13.5t13.5 -33.5t-13.5 -33.5t-33.5 -13.5t-33.5 13.5t-13.5 33.5z" />
<glyph unicode="&#xe5;" d="M109 559q0 153 77.5 282.5t210.5 205t289 75.5q133 0 252 -40.5t197 -112.5v133h47v-1102h-47v139q-182 -145 -449 -145q-156 0 -289 75.5t-210.5 205.5t-77.5 284zM158 559q0 -141 71.5 -260t193 -187.5t263.5 -68.5q287 0 449 162v700q-80 80 -195.5 124t-253.5 44 q-143 0 -264 -68t-192.5 -186.5t-71.5 -259.5zM532 1477q0 67 50 116t118 49t118 -49t50 -116t-50 -116.5t-118 -49.5t-118 49.5t-50 116.5zM584 1477q0 -47 34.5 -81t81.5 -34t82 34t35 81t-34.5 80.5t-82.5 33.5q-47 0 -81.5 -33.5t-34.5 -80.5z" />
<glyph unicode="&#xe6;" horiz-adv-x="2334" d="M109 559q0 153 77.5 282.5t210.5 205t289 75.5q133 0 252 -40.5t197 -112.5v133h47v-309q63 151 197 240t313 89q243 0 386.5 -157.5t143.5 -411.5v-21h-1040q5 -136 70.5 -247.5t181 -176.5t258.5 -65q141 0 255 50.5t187 142.5l41 -31q-79 -100 -204.5 -155.5 t-278.5 -55.5q-179 0 -313 88.5t-197 239.5v-322h-47v139q-182 -145 -449 -145q-156 0 -289 75.5t-210.5 205.5t-77.5 284zM158 559q0 -141 71.5 -260t193 -187.5t263.5 -68.5q287 0 449 162v700q-80 80 -195.5 124t-253.5 44q-143 0 -264 -68t-192.5 -186.5t-71.5 -259.5z M1182 580h991q-8 220 -138.5 356.5t-342.5 136.5q-217 0 -359.5 -140.5t-150.5 -352.5z" />
<glyph unicode="&#xe7;" horiz-adv-x="1210" d="M109 557q0 154 80 284t218 205.5t300 75.5q241 0 397 -180l-37 -33q-68 77 -161 120.5t-199 43.5q-149 0 -275.5 -68.5t-200 -187.5t-73.5 -260t73.5 -259.5t200 -186.5t275.5 -68q104 0 197.5 45.5t162.5 126.5l35 -37q-74 -87 -176.5 -135.5t-218.5 -48.5h-2l-58 -115 q56 0 92.5 -29t36.5 -81q0 -59 -43 -104.5t-133 -45.5q-37 0 -68.5 6t-45.5 11l-13 4l14 38q54 -16 111 -16q66 0 97.5 32t31.5 75q0 79 -149 79l86 148q-153 8 -280.5 84.5t-201 203t-73.5 273.5z" />
<glyph unicode="&#xe8;" horiz-adv-x="1310" d="M109 557q0 156 70 284.5t199 204.5t290 76q243 0 386.5 -157.5t143.5 -411.5v-21h-1040q12 -218 157 -353.5t353 -135.5q141 0 255 50.5t187 142.5l41 -31q-79 -100 -204.5 -155.5t-278.5 -55.5q-161 0 -290 76t-199 204t-70 283zM158 580h991q-8 220 -138.5 356.5 t-342.5 136.5q-217 0 -359.5 -140.5t-150.5 -352.5zM299 1573l66 6l325 -313h-59z" />
<glyph unicode="&#xe9;" horiz-adv-x="1310" d="M109 557q0 156 70 284.5t199 204.5t290 76q243 0 386.5 -157.5t143.5 -411.5v-21h-1040q12 -218 157 -353.5t353 -135.5q141 0 255 50.5t187 142.5l41 -31q-79 -100 -204.5 -155.5t-278.5 -55.5q-161 0 -290 76t-199 204t-70 283zM158 580h991q-8 220 -138.5 356.5 t-342.5 136.5q-217 0 -359.5 -140.5t-150.5 -352.5zM631 1266l325 313l66 -6l-332 -307h-59z" />
<glyph unicode="&#xea;" horiz-adv-x="1310" d="M109 557q0 156 70 284.5t199 204.5t290 76q243 0 386.5 -157.5t143.5 -411.5v-21h-1040q12 -218 157 -353.5t353 -135.5q141 0 255 50.5t187 142.5l41 -31q-79 -100 -204.5 -155.5t-278.5 -55.5q-161 0 -290 76t-199 204t-70 283zM158 580h991q-8 220 -138.5 356.5 t-342.5 136.5q-217 0 -359.5 -140.5t-150.5 -352.5zM346 1266l289 268h39l293 -268h-74l-238 217l-235 -217h-74z" />
<glyph unicode="&#xeb;" horiz-adv-x="1310" d="M109 557q0 156 70 284.5t199 204.5t290 76q243 0 386.5 -157.5t143.5 -411.5v-21h-1040q12 -218 157 -353.5t353 -135.5q141 0 255 50.5t187 142.5l41 -31q-79 -100 -204.5 -155.5t-278.5 -55.5q-161 0 -290 76t-199 204t-70 283zM158 580h991q-8 220 -138.5 356.5 t-342.5 136.5q-217 0 -359.5 -140.5t-150.5 -352.5zM457 1364q0 20 13.5 33.5t33.5 13.5t33.5 -13.5t13.5 -33.5t-13.5 -33.5t-33.5 -13.5t-33.5 13.5t-13.5 33.5zM760 1364q0 20 13.5 33.5t33.5 13.5t33.5 -13.5t13.5 -33.5t-13.5 -33.5t-33.5 -13.5t-33.5 13.5t-13.5 33.5 z" />
<glyph unicode="&#xec;" horiz-adv-x="421" d="M-145 1552l65 7l326 -314h-60zM186 0v1102h50v-1102h-50z" />
<glyph unicode="&#xed;" horiz-adv-x="421" d="M186 0v1102h50v-1102h-50zM190 1245l326 314l66 -7l-332 -307h-60z" />
<glyph unicode="&#xee;" horiz-adv-x="421" d="M-98 1245l288 268h39l293 -268h-73l-238 217l-236 -217h-73zM186 0v1102h50v-1102h-50z" />
<glyph unicode="&#xef;" horiz-adv-x="421" d="M12 1343q0 20 13.5 34t33.5 14t33.5 -14t13.5 -34t-13.5 -33.5t-33.5 -13.5t-33.5 13.5t-13.5 33.5zM186 0v1102h50v-1102h-50zM315 1343q0 20 13.5 34t33.5 14t34 -14t14 -34t-14 -33.5t-34 -13.5t-33.5 13.5t-13.5 33.5z" />
<glyph unicode="&#xf0;" horiz-adv-x="1363" d="M76 522q0 106 47.5 202.5t127.5 165.5t190.5 109.5t232.5 40.5q271 0 432 -172l-43 66q-40 61 -98.5 129.5t-101.5 113t-118 117.5l-364 -127l-29 39l357 125q-49 49 -226 213h68q108 -98 209 -196l309 108l27 -39l-299 -104q475 -467 475 -791q0 -141 -80 -263 t-218 -193.5t-300 -71.5t-300 71.5t-218 193.5t-80 263zM125 522q0 -129 73.5 -239.5t200 -175t275.5 -64.5t275.5 66t200 179.5t73.5 246.5q0 103 -48 191t-126 144.5t-176 88.5t-199 32q-149 0 -275.5 -62t-200 -170t-73.5 -237z" />
<glyph unicode="&#xf1;" horiz-adv-x="1312" d="M184 0v1102h47v-139q159 159 449 159q99 0 184.5 -31.5t150.5 -90.5t102.5 -152t37.5 -209v-639h-47v639q0 206 -120.5 320t-307.5 114q-270 0 -449 -162v-911h-47zM291 1262q35 208 215 208q62 0 172.5 -50t167.5 -50q52 0 93 41.5t52 122.5l47 -8q-18 -104 -70 -154.5 t-122 -50.5q-62 0 -176.5 50t-163.5 50q-132 0 -168 -166z" />
<glyph unicode="&#xf2;" horiz-adv-x="1411" d="M106 557q0 154 80.5 284t218.5 205.5t300 75.5t300 -75.5t218 -205.5t80 -284q0 -153 -80 -282.5t-218 -205t-300 -75.5t-300 75.5t-218.5 205t-80.5 282.5zM156 557q0 -141 73.5 -259.5t200 -186.5t275.5 -68t275 68t199.5 186.5t73.5 259.5t-73.5 260t-199.5 187.5 t-275 68.5t-275.5 -68.5t-200 -187.5t-73.5 -260zM334 1552l65 7l326 -314h-59z" />
<glyph unicode="&#xf3;" horiz-adv-x="1411" d="M106 557q0 154 80.5 284t218.5 205.5t300 75.5t300 -75.5t218 -205.5t80 -284q0 -153 -80 -282.5t-218 -205t-300 -75.5t-300 75.5t-218.5 205t-80.5 282.5zM156 557q0 -141 73.5 -259.5t200 -186.5t275.5 -68t275 68t199.5 186.5t73.5 259.5t-73.5 260t-199.5 187.5 t-275 68.5t-275.5 -68.5t-200 -187.5t-73.5 -260zM666 1245l325 314l66 -7l-332 -307h-59z" />
<glyph unicode="&#xf4;" horiz-adv-x="1411" d="M106 557q0 154 80.5 284t218.5 205.5t300 75.5t300 -75.5t218 -205.5t80 -284q0 -153 -80 -282.5t-218 -205t-300 -75.5t-300 75.5t-218.5 205t-80.5 282.5zM156 557q0 -141 73.5 -259.5t200 -186.5t275.5 -68t275 68t199.5 186.5t73.5 259.5t-73.5 260t-199.5 187.5 t-275 68.5t-275.5 -68.5t-200 -187.5t-73.5 -260zM385 1245l289 268h39l293 -268h-74l-238 217l-235 -217h-74z" />
<glyph unicode="&#xf5;" horiz-adv-x="1411" d="M106 557q0 154 80.5 284t218.5 205.5t300 75.5t300 -75.5t218 -205.5t80 -284q0 -153 -80 -282.5t-218 -205t-300 -75.5t-300 75.5t-218.5 205t-80.5 282.5zM156 557q0 -141 73.5 -259.5t200 -186.5t275.5 -68t275 68t199.5 186.5t73.5 259.5t-73.5 260t-199.5 187.5 t-275 68.5t-275.5 -68.5t-200 -187.5t-73.5 -260zM324 1262q35 208 215 208q63 0 173 -50t167 -50q52 0 93 41.5t52 122.5l47 -8q-18 -104 -70 -154.5t-122 -50.5q-62 0 -176.5 50t-163.5 50q-132 0 -168 -166z" />
<glyph unicode="&#xf6;" horiz-adv-x="1411" d="M106 557q0 154 80.5 284t218.5 205.5t300 75.5t300 -75.5t218 -205.5t80 -284q0 -153 -80 -282.5t-218 -205t-300 -75.5t-300 75.5t-218.5 205t-80.5 282.5zM156 557q0 -141 73.5 -259.5t200 -186.5t275.5 -68t275 68t199.5 186.5t73.5 259.5t-73.5 260t-199.5 187.5 t-275 68.5t-275.5 -68.5t-200 -187.5t-73.5 -260zM496 1343q0 20 13.5 34t33.5 14t33.5 -14t13.5 -34t-13.5 -33.5t-33.5 -13.5t-33.5 13.5t-13.5 33.5zM799 1343q0 20 13.5 34t33.5 14t33.5 -14t13.5 -34t-13.5 -33.5t-33.5 -13.5t-33.5 13.5t-13.5 33.5z" />
<glyph unicode="&#xf7;" horiz-adv-x="1077" d="M102 657v43h877v-43h-877zM483 147q0 20 13.5 34t33.5 14t34 -14t14 -34t-14 -33.5t-34 -13.5t-33.5 13.5t-13.5 33.5zM483 1155q0 20 13.5 33.5t33.5 13.5t34 -13.5t14 -33.5t-14 -33.5t-34 -13.5t-33.5 13.5t-13.5 33.5z" />
<glyph unicode="&#xf8;" horiz-adv-x="1411" d="M106 557q0 154 80.5 284t218.5 205.5t300 75.5q205 0 362 -116l98 112h58l-123 -137q96 -80 149.5 -189.5t53.5 -234.5q0 -153 -80 -282.5t-218 -205t-300 -75.5q-208 0 -369 119l-100 -113h-56l123 139q-94 79 -145.5 187t-51.5 231zM156 557q0 -228 180 -381l698 793 q-145 104 -329 104q-149 0 -275.5 -68.5t-200 -187.5t-73.5 -260zM369 150q145 -107 336 -107q149 0 275 68t199.5 186.5t73.5 259.5q0 114 -49 212.5t-137 172.5z" />
<glyph unicode="&#xf9;" horiz-adv-x="1333" d="M158 477v625h47v-625q0 -206 120.5 -320t307.5 -114q277 0 469 162v897h47v-1102h-47v154q-81 -77 -203 -118.5t-266 -41.5q-99 0 -184.5 31.5t-150.5 90.5t-102.5 152t-37.5 209zM311 1552l66 7l325 -314h-59z" />
<glyph unicode="&#xfa;" horiz-adv-x="1333" d="M158 477v625h47v-625q0 -206 120.5 -320t307.5 -114q277 0 469 162v897h47v-1102h-47v154q-81 -77 -203 -118.5t-266 -41.5q-99 0 -184.5 31.5t-150.5 90.5t-102.5 152t-37.5 209zM643 1245l326 314l65 -7l-332 -307h-59z" />
<glyph unicode="&#xfb;" horiz-adv-x="1333" d="M158 477v625h47v-625q0 -206 120.5 -320t307.5 -114q277 0 469 162v897h47v-1102h-47v154q-81 -77 -203 -118.5t-266 -41.5q-99 0 -184.5 31.5t-150.5 90.5t-102.5 152t-37.5 209zM340 1245l289 268h39l293 -268h-74l-238 217l-235 -217h-74z" />
<glyph unicode="&#xfc;" horiz-adv-x="1333" d="M158 477v625h47v-625q0 -206 120.5 -320t307.5 -114q277 0 469 162v897h47v-1102h-47v154q-81 -77 -203 -118.5t-266 -41.5q-99 0 -184.5 31.5t-150.5 90.5t-102.5 152t-37.5 209zM449 1343q0 20 13.5 34t33.5 14t33.5 -14t13.5 -34t-13.5 -33.5t-33.5 -13.5t-33.5 13.5 t-13.5 33.5zM752 1343q0 20 13.5 34t33.5 14t33.5 -14t13.5 -34t-13.5 -33.5t-33.5 -13.5t-33.5 13.5t-13.5 33.5z" />
<glyph unicode="&#xfd;" horiz-adv-x="1241" d="M74 1102h55l496 -1053h55l426 1053h53l-469 -1161q-64 -160 -215.5 -239t-365.5 -79h-17v49h23q131 0 237 32.5t188 107.5t122 188h-68zM614 1245l326 314l66 -7l-332 -307h-60z" />
<glyph unicode="&#xfe;" horiz-adv-x="1370" d="M184 -358v1902h47v-575q78 72 197 112.5t252 40.5q156 0 289 -75.5t210.5 -205t77.5 -282.5q0 -154 -77.5 -284t-210.5 -205.5t-289 -75.5q-273 0 -449 145v-497h-47zM231 205q162 -162 449 -162q142 0 263.5 68.5t193 187.5t71.5 260t-71.5 259.5t-192.5 186.5t-264 68 q-281 0 -449 -168v-700z" />
<glyph unicode="&#xff;" horiz-adv-x="1241" d="M74 1102h55l496 -1053h55l426 1053h53l-469 -1161q-64 -160 -215.5 -239t-365.5 -79h-17v49h23q131 0 237 32.5t188 107.5t122 188h-68zM440 1343q0 20 13.5 34t33.5 14t34 -14t14 -34t-14 -33.5t-34 -13.5t-33.5 13.5t-13.5 33.5zM743 1343q0 20 14 34t34 14t33.5 -14 t13.5 -34t-13.5 -33.5t-33.5 -13.5t-34 13.5t-14 33.5z" />
<glyph unicode="&#x152;" horiz-adv-x="2068" d="M123 721q0 148 60 282t161.5 230.5t242 153.5t294.5 57h1032v-49h-887v-670h760v-49h-760v-627h930v-49h-1075q-154 0 -294.5 56.5t-242 153t-161.5 230t-60 281.5zM174 721q0 -147 59.5 -274t159.5 -213.5t233.5 -135.5t280.5 -49h70v1346h-80q-144 0 -276 -49.5 t-231 -136t-157.5 -214t-58.5 -274.5z" />
<glyph unicode="&#x153;" horiz-adv-x="2455" d="M106 557q0 154 80.5 284t218.5 205.5t300 75.5q198 0 355 -111.5t216 -287.5q51 178 194 288.5t342 110.5q243 0 387 -157.5t144 -411.5v-21h-1040q5 -207 150 -348t359 -141q141 0 255.5 50.5t187.5 142.5l41 -31q-79 -100 -205 -155.5t-279 -55.5q-198 0 -341.5 110.5 t-194.5 286.5q-58 -174 -215.5 -285.5t-355.5 -111.5q-162 0 -300 75.5t-218.5 205t-80.5 282.5zM156 557q0 -141 73.5 -259.5t200 -186.5t275.5 -68t275 68t199.5 186.5t73.5 259.5t-73.5 260t-199.5 187.5t-275 68.5t-275.5 -68.5t-200 -187.5t-73.5 -260zM1303 580h991 q-8 220 -139 356.5t-343 136.5q-217 0 -359 -140.5t-150 -352.5z" />
<glyph unicode="&#x178;" horiz-adv-x="1314" d="M57 1444h60l540 -893l541 893h62l-576 -942v-502h-51v502zM461 1653q0 20 13.5 33.5t33.5 13.5t33.5 -13.5t13.5 -33.5t-13.5 -33.5t-33.5 -13.5t-33.5 13.5t-13.5 33.5zM764 1653q0 20 13.5 33.5t33.5 13.5t33.5 -13.5t13.5 -33.5t-13.5 -33.5t-33.5 -13.5t-33.5 13.5 t-13.5 33.5z" />
<glyph unicode="&#x2c6;" horiz-adv-x="1024" d="M199 1554l288 269h39l293 -269h-74l-237 218l-236 -218h-73z" />
<glyph unicode="&#x2dc;" horiz-adv-x="1024" d="M133 1571q35 209 215 209q51 0 112 -25t120.5 -50.5t107.5 -25.5q52 0 93.5 41.5t52.5 122.5l47 -8q-18 -103 -70 -154t-123 -51q-62 0 -176.5 50.5t-163.5 50.5q-132 0 -168 -166z" />
<glyph unicode="&#x2000;" horiz-adv-x="947" />
<glyph unicode="&#x2001;" horiz-adv-x="1894" />
<glyph unicode="&#x2002;" horiz-adv-x="947" />
<glyph unicode="&#x2003;" horiz-adv-x="1894" />
<glyph unicode="&#x2004;" horiz-adv-x="631" />
<glyph unicode="&#x2005;" horiz-adv-x="473" />
<glyph unicode="&#x2006;" horiz-adv-x="315" />
<glyph unicode="&#x2007;" horiz-adv-x="315" />
<glyph unicode="&#x2008;" horiz-adv-x="236" />
<glyph unicode="&#x2009;" horiz-adv-x="378" />
<glyph unicode="&#x200a;" horiz-adv-x="105" />
<glyph unicode="&#x2010;" horiz-adv-x="835" d="M102 657v43h631v-43h-631z" />
<glyph unicode="&#x2011;" horiz-adv-x="835" d="M102 657v43h631v-43h-631z" />
<glyph unicode="&#x2012;" horiz-adv-x="835" d="M102 657v43h631v-43h-631z" />
<glyph unicode="&#x2013;" horiz-adv-x="1081" d="M102 657v43h877v-43h-877z" />
<glyph unicode="&#x2014;" horiz-adv-x="1839" d="M102 657v43h1631v-43h-1631z" />
<glyph unicode="&#x2018;" horiz-adv-x="350" d="M119 1247q0 86 54.5 141.5t143.5 55.5l11 -29q-160 -13 -160 -168q20 0 33.5 -13.5t13.5 -33.5t-12.5 -33.5t-30.5 -13.5q-33 0 -43 24.5t-10 69.5z" />
<glyph unicode="&#x2019;" horiz-adv-x="317" d="M45 1182q160 13 160 168q-20 0 -33.5 13.5t-13.5 33.5t12.5 33.5t30.5 13.5q33 0 43 -24.5t10 -69.5q0 -86 -54.5 -141.5t-144.5 -55.5z" />
<glyph unicode="&#x201a;" horiz-adv-x="362" d="M18 -168q160 13 160 168q-20 0 -33.5 13.5t-13.5 33.5t12.5 33.5t30.5 13.5q33 0 43 -24.5t10 -69.5q0 -86 -54.5 -141.5t-143.5 -55.5z" />
<glyph unicode="&#x201c;" horiz-adv-x="602" d="M96 1247q0 86 54.5 141.5t144.5 55.5l10 -29q-160 -13 -160 -168q20 0 34 -13.5t14 -33.5t-12.5 -33.5t-30.5 -13.5q-33 0 -43.5 25t-10.5 69zM356 1247q0 86 54.5 141.5t144.5 55.5l10 -29q-159 -13 -159 -168q20 0 33.5 -13.5t13.5 -33.5t-12.5 -33.5t-30.5 -13.5 q-33 0 -43.5 25t-10.5 69z" />
<glyph unicode="&#x201d;" horiz-adv-x="585" d="M47 1182q160 13 160 168q-20 0 -33.5 13.5t-13.5 33.5t12.5 33.5t30.5 13.5q33 0 43 -24.5t10 -69.5q0 -86 -54.5 -141.5t-144.5 -55.5zM307 1182q160 13 160 168q-20 0 -33.5 13.5t-13.5 33.5t12.5 33.5t30.5 13.5q33 0 43 -24.5t10 -69.5q0 -86 -54.5 -141.5 t-144.5 -55.5z" />
<glyph unicode="&#x201e;" horiz-adv-x="595" d="M25 -168q159 13 159 168q-20 0 -33.5 13.5t-13.5 33.5t12.5 33.5t30.5 13.5q33 0 43 -24.5t10 -69.5q0 -86 -54.5 -141.5t-143.5 -55.5zM285 -168q159 13 159 168q-20 0 -33.5 13.5t-13.5 33.5t12.5 33.5t30.5 13.5q33 0 43.5 -25t10.5 -69q0 -86 -54.5 -141.5 t-144.5 -55.5z" />
<glyph unicode="&#x2022;" horiz-adv-x="735" d="M172 721q0 80 56.5 136t138.5 56q80 0 137 -56.5t57 -135.5q0 -81 -57 -138t-137 -57q-82 0 -138.5 56.5t-56.5 138.5z" />
<glyph unicode="&#x2026;" horiz-adv-x="962" d="M80 41q0 20 13.5 33.5t33.5 13.5t33.5 -13.5t13.5 -33.5t-13.5 -33.5t-33.5 -13.5t-33.5 13.5t-13.5 33.5zM420 41q0 20 13.5 33.5t33.5 13.5t33.5 -13.5t13.5 -33.5t-13.5 -33.5t-33.5 -13.5t-33.5 13.5t-13.5 33.5zM770 41q0 20 13.5 33.5t33.5 13.5t33.5 -13.5 t13.5 -33.5t-13.5 -33.5t-33.5 -13.5t-33.5 13.5t-13.5 33.5z" />
<glyph unicode="&#x202f;" horiz-adv-x="378" />
<glyph unicode="&#x2039;" horiz-adv-x="583" d="M68 545l354 524l6 -4q3 -1 6 -4t6 -4l17 -13l-338 -499l338 -500l-35 -25z" />
<glyph unicode="&#x203a;" horiz-adv-x="536" d="M70 45l338 500l-338 499l34 25l355 -524l-355 -525z" />
<glyph unicode="&#x205f;" horiz-adv-x="473" />
<glyph unicode="&#x20ac;" horiz-adv-x="1441" d="M84 557v49h129q-8 52 -8 113q0 56 8 108h-129v50h137q50 246 231 406.5t420 160.5q156 0 292.5 -72t230.5 -198l-41 -31q-88 118 -213 184t-269 66q-215 0 -382.5 -146t-217.5 -370h676v-50h-684q-8 -52 -8 -108q0 -61 8 -113h684v-49h-674q50 -223 217 -367.5 t381 -144.5q144 0 269.5 65.5t212.5 182.5l41 -31q-94 -125 -230 -196.5t-293 -71.5q-236 0 -418.5 159t-232.5 404h-137z" />
<glyph unicode="&#x2122;" horiz-adv-x="1423" d="M33 1386v46h555v-46h-254v-593h-45v593h-256zM688 793v639h19l317 -459l317 459h19v-639h-43v528l-293 -424l-293 424v-528h-43z" />
<glyph unicode="&#x25fc;" horiz-adv-x="1105" d="M0 0v1106h1106v-1106h-1106z" />
<glyph unicode="&#xfb01;" horiz-adv-x="1132" d="M-70 -324q46 -4 80 -4q110 0 181 69.5t71 197.5v1116h-217v47h217v80q0 171 72.5 269.5t228.5 98.5q125 0 189 -22v-49q-77 22 -189 22q-138 0 -195 -87.5t-57 -252.5v-59h635v-1102h-49v1055h-586v-1116q0 -151 -85 -233.5t-216 -82.5q-30 0 -80 4v49zM874 1397 q0 20 14 33.5t34 13.5t33.5 -13.5t13.5 -33.5t-13.5 -33.5t-33.5 -13.5t-34 13.5t-14 33.5z" />
<glyph unicode="&#xfb02;" horiz-adv-x="1191" d="M-70 -324q46 -4 80 -4q110 0 181 69.5t71 197.5v1116h-217v47h217q0 92 11 160.5t37 124.5t70 91t109.5 53.5t155.5 18.5q100 0 173.5 -27t113.5 -73.5t58 -99.5t18 -115v-1235h-50v1235q0 133 -87 199.5t-226 66.5q-101 0 -167.5 -24.5t-102.5 -78t-50 -123t-14 -173.5 h416v-47h-416v-1116q0 -151 -85 -233.5t-216 -82.5q-30 0 -80 4v49z" />
<glyph unicode="&#xfb03;" horiz-adv-x="1849" d="M-70 -324q46 -4 80 -4q110 0 181 69.5t71 197.5v1116h-217v47h217v67q0 156 77.5 244t223.5 88q125 0 189 -22v-49q-77 22 -189 22q-132 0 -192 -75t-60 -222v-53h668v76q0 372 301 372q124 0 188 -22v-49q-77 22 -188 22q-140 0 -196 -86t-56 -254v-59h635v-1102h-49 v1055h-586v-1084q0 -151 -85 -233t-216 -82q-30 0 -80 4v49q46 -4 80 -4q110 0 181 69t71 197v1084h-668v-1116q0 -151 -85 -233.5t-216 -82.5q-30 0 -80 4v49zM1591 1397q0 20 13.5 33.5t33.5 13.5t34 -13.5t14 -33.5t-14 -33.5t-34 -13.5t-33.5 13.5t-13.5 33.5z" />
<glyph unicode="&#xfb04;" horiz-adv-x="1908" d="M-70 -324q46 -4 80 -4q110 0 181 69.5t71 197.5v1116h-217v47h217v84q0 151 85 233t216 82q125 0 189 -22v-49q-77 22 -189 22q-110 0 -181 -69t-71 -197v-84h668v133q0 151 107 233t276 82q155 0 258.5 -82.5t103.5 -232.5v-1235h-49v1235q0 127 -88 196.5t-225 69.5 q-147 0 -240.5 -69.5t-93.5 -196.5v-133h416v-47h-416v-1084q0 -151 -85 -233t-216 -82q-30 0 -80 4v49q46 -4 80 -4q110 0 181 69t71 197v1084h-668v-1116q0 -151 -85 -233.5t-216 -82.5q-30 0 -80 4v49z" />
</font>
</defs>
</svg>
